<?xml version="1.0" standalone="no"?>
<!DOCTYPE svg PUBLIC "-//W3C//DTD SVG 1.1//EN" "http://www.w3.org/Graphics/SVG/1.1/DTD/svg11.dtd" >
<svg xmlns="http://www.w3.org/2000/svg">
  <metadata>
    Created by FontPrep 20130207 at Tue Sep  5 09:55:42 2017
    By Jan Drewniak
    Copyright (c) Olivier Gourvat - Mostardesign Studio, 2012. All rights reserved.
  </metadata>
  <defs>
    <font id="afdea9644759cd81a2110c25f5517622" horiz-adv-x='1024' >
      <font-face
        font-family="SofiaProRegular"
        font-weight="400"
        font-stretch="normal"
        units-per-em="2048"
        panose-1="2 0 5 3 0 0 0 0 0 0"
        ascent="1548"
        descent="-500"
        x-height="956"
        cap-height="1411"
        bbox="-205 -514.042 1909.12 1628"
        underline-thickness="102"
        underline-position="-102"
        unicode-range="U+0020-007D"
      />
      <missing-glyph horiz-adv-x="1024"
      />
      <glyph glyph-name=".notdef" horiz-adv-x="1024"
      />
      <glyph glyph-name=".null" horiz-adv-x="0"
      />
      <glyph glyph-name="nonmarkingreturn" horiz-adv-x="681"
      />
      <glyph glyph-name="space" unicode=" " horiz-adv-x="532"
      />
      <glyph glyph-name="exclam" unicode="!" horiz-adv-x="540"
             d="M135 106q0 54 39 92t94 38t95 -37t40 -93t-41 -91q-41 -36 -94 -36t-94 35q-39 37 -39 92zM178 1411h184l-18 -1032h-145z" />
      <glyph glyph-name="quotedbl" unicode="&#x22;" horiz-adv-x="727"
             d="M428 821v590h145v-590h-145zM154 821v590h145v-590h-145z" />
      <glyph glyph-name="numbersign" unicode="#" horiz-adv-x="1343"
             d="M827 881h-219l-98 -359h219zM1153 1411l-98 -356h215l-47 -174h-217l-99 -359h215l-47 -174h-215l-100 -348h-176l98 348h-219l-101 -348h-174l99 348h-213l47 174h213l96 359h-209l45 174h213l99 356h178l-99 -356h220l98 356h178z" />
      <glyph glyph-name="dollar" unicode="$"
             d="M643 -244h-127v228q-186 24 -303 146t-117 278h191q2 -96 86 -174t213 -76q130 0 202 57t86 150q8 98 -57 162t-182 89l-182 46q-344 88 -344 368q-1 162 119 270t288 123v205h127v-207q168 -20 275 -131q102 -113 102 -276h-191q1 104 -73 168t-184 63q-110 0 -195 -59
q-78 -59 -78 -154q0 -147 201 -196l184 -45q207 -53 302 -166t76 -271t-131 -257t-288 -115v-226z" />
      <glyph glyph-name="percent" unicode="%" horiz-adv-x="1396"
             d="M1178 252q0 53 -39 92t-92 39q-84 6 -119 -80q-33 -88 26 -143q55 -59 144 -27q86 35 80 119zM1046 526q114 0 193 -82q82 -80 82 -194t-80 -193q-85 -77 -195 -77t-194 77q-78 84 -78 195t78 194q80 80 194 80zM481 1104q0 53 -39 92t-92 39q-84 6 -119 -80
q-33 -88 27 -143q55 -59 143 -27q86 35 80 119zM349 1378q114 0 195 -81t81 -195t-80 -193q-84 -78 -195 -78t-194 78q-78 84 -78 195t78 194q79 80 193 80zM954 1378h136l-674 -1378h-135z" />
      <glyph glyph-name="ampersand" unicode="&#x26;" horiz-adv-x="1345"
             d="M856 713h-281q-119 0 -201 -83t-83 -200q0 -118 81 -194q82 -76 202 -76t200 74t82 186v293zM580 864h276v183h176v-185h178v-149h-178v-281q0 -139 45 -211q49 -68 168 -67v-172q-109 0 -195 41t-128 110q-51 -68 -146 -113q-98 -39 -203 -38q-201 0 -331 129
q-129 131 -129 321q0 115 55 213t154 160q-100 94 -100 249t107 256q108 101 259 101q102 0 193 -54t147 -147l-152 -94q-72 117 -188 117q-84 0 -136 -49t-52 -124t51 -138q57 -58 129 -58z" />
      <glyph glyph-name="quotesingle" unicode="'" horiz-adv-x="452"
             d="M154 821v590h145v-590h-145z" />
      <glyph glyph-name="parenleft" unicode="(" horiz-adv-x="743"
             d="M662 1427v-182q-174 0 -283 -209q-105 -209 -105 -561t105 -561q109 -209 283 -209v-182q-256 0 -410 256q-152 256 -152 696t152 696q154 256 410 256z" />
      <glyph glyph-name="parenright" unicode=")" horiz-adv-x="743"
             d="M82 -477v182q176 0 280 209q106 205 107 561q0 356 -107 561q-104 209 -280 209v182q256 0 407 -256q154 -254 154 -696t-154 -696q-151 -256 -407 -256z" />
      <glyph glyph-name="asterisk" unicode="*" horiz-adv-x="956"
             d="M483 948l-159 -231l-123 94l174 215l-269 76l52 149l256 -100l-17 276h162l-18 -276l260 100l47 -149l-266 -72l178 -221l-127 -88z" />
      <glyph glyph-name="plus" unicode="+" horiz-adv-x="1062"
             d="M111 625h331v331h179v-331h331v-179h-331v-333h-179v333h-331v179z" />
      <glyph glyph-name="comma" unicode="," horiz-adv-x="526"
             d="M166 -258l-131 43q145 201 139 451h197q-13 -170 -71 -299t-134 -195z" />
      <glyph glyph-name="hyphen" unicode="-" horiz-adv-x="995"
             d="M141 389v178h713v-178h-713z" />
      <glyph glyph-name="period" unicode="." horiz-adv-x="544"
             d="M139 106q0 54 39 92t94 38q56 0 96 -37t40 -93t-41 -91q-41 -36 -95 -36t-94 35q-39 37 -39 92z" />
      <glyph glyph-name="slash" unicode="/" horiz-adv-x="1026"
             d="M760 1411h203l-697 -1411h-203z" />
      <glyph glyph-name="zero" unicode="0" horiz-adv-x="1239"
             d="M922 667q0 249 -70 375t-230 127q-160 -1 -232 -127q-71 -126 -71 -375t71 -376t231 -127t231 127q70 127 70 376zM135 666q0 297 96 485q111 203 392 203t385 -203q96 -176 96 -483t-96 -484q-104 -203 -387 -202q-486 0 -486 684z" />
      <glyph glyph-name="one" unicode="1" horiz-adv-x="684"
             d="M487 0h-184v1104l-217 -76v176l401 146v-1350z" />
      <glyph glyph-name="two" unicode="2" horiz-adv-x="1079"
             d="M123 0v82l543 657q98 113 98 213t-70 158t-167 59q-97 0 -163 -58t-79 -153l-179 43q27 158 144 256q122 97 288 97t287 -111t121 -286t-145 -345l-363 -428h510v-184h-825z" />
      <glyph glyph-name="three" unicode="3" horiz-adv-x="1095"
             d="M530 625h-151v178h151q68 -2 121 41q51 46 65 122t-24 128q-47 72 -155 77q-144 13 -234 -120l-137 108q55 96 160 152q109 53 227 45q162 -8 266 -119q106 -106 103 -252q0 -39 -13 -82q-37 -121 -145 -182q102 -37 162 -143t49 -218q-17 -170 -161 -280t-329 -96
q-131 10 -236 85t-161 193l162 88q37 -78 102 -125q67 -53 146 -59q117 -6 198 57q90 66 93 163t-75 168t-184 71z" />
      <glyph glyph-name="four" unicode="4" horiz-adv-x="1212"
             d="M750 449v557l-383 -557h383zM1124 274h-192v-274h-182v274h-697l742 1063h137v-888h192v-175z" />
      <glyph glyph-name="five" unicode="5" horiz-adv-x="1155"
             d="M543 158q154 0 239 73q82 76 82 196q0 119 -77 189t-181 70t-173 -24t-177 -87l-115 95l117 665h713v-176h-561l-74 -379q47 35 120 57t132 21q192 0 324 -114t132 -316t-139 -326q-139 -123 -362 -122q-139 0 -262 81q-124 89 -183 224l158 86q41 -100 117 -156
q72 -57 170 -57z" />
      <glyph glyph-name="six" unicode="6" horiz-adv-x="1138"
             d="M791 598q-69 80 -175 82t-186 -68t-82 -178q-2 -109 70 -186q74 -76 180 -80t176 65q78 72 81 182t-64 183zM641 1180q-145 0 -228 -132t-65 -335q59 152 275 151q178 0 299 -139q120 -139 112 -321t-137 -306t-310 -116q-181 10 -296 132t-131 344t24 488
q31 184 154 299q127 115 305 109q133 -6 229 -64t154 -194l-164 -70q-76 154 -221 154z" />
      <glyph glyph-name="seven" unicode="7" horiz-adv-x="1085"
             d="M127 1337h924l-734 -1337h-215l637 1155h-612v182z" />
      <glyph glyph-name="eight" unicode="8"
             d="M752 1012q0 68 -52 110q-47 47 -124 47t-125 -47q-49 -43 -49 -108t47 -117q46 -45 116 -49h17q74 4 123 49q47 47 47 115zM299 416q0 -104 80 -178q81 -74 197 -74t196 74t80 180t-78 182t-199 76h-14q-111 -4 -187 -80t-75 -180zM219 1014q0 141 103 239
q100 101 254 101t255 -101q105 -98 105 -239t-105 -238q96 -59 152 -153q53 -96 53 -205q0 -182 -133 -309t-330 -127t-327 124t-131 312q0 111 53 205t149 153q-98 97 -98 238z" />
      <glyph glyph-name="nine" unicode="9" horiz-adv-x="1136"
             d="M815 899q0 109 -73 187t-177 79q-104 2 -180 -67q-74 -70 -78 -178t65 -187q70 -78 178 -81t181 67q80 71 84 180zM539 469q-180 0 -300 138q-120 137 -112 321t137 308t310 115t296 -131t131 -344t-24 -489q-31 -186 -157 -300t-302 -107q-132 6 -228 64t-155 194
l164 69q78 -153 222 -153q143 0 227 132t65 335q-59 -152 -274 -152z" />
      <glyph glyph-name="colon" unicode=":" horiz-adv-x="550"
             d="M141 851q0 56 39 91t95 35q55 0 95 -35t40 -91t-39 -93t-95 -37t-96 37q-39 37 -39 93zM141 106q0 55 39 93q41 37 96 37q54 0 94 -37t40 -93t-39 -92q-41 -35 -95 -35t-96 35q-39 37 -39 92z" />
      <glyph glyph-name="semicolon" unicode=";" horiz-adv-x="581"
             d="M170 851q0 56 40 91t93 35t94 -36t41 -91t-41 -92t-94 -37t-94 37q-39 37 -39 93zM201 -258l-142 43q145 201 140 451h207q-12 -172 -70 -299q-55 -132 -135 -195z" />
      <glyph glyph-name="less" unicode="&#x3c;" horiz-adv-x="1273"
             d="M1135 260v-194l-1039 395v178l1039 397v-198l-781 -287z" />
      <glyph glyph-name="equal" unicode="=" horiz-adv-x="1245"
             d="M152 225v178h942v-178h-942zM152 621v178h942v-178h-942z" />
      <glyph glyph-name="greater" unicode="&#x3e;" horiz-adv-x="1271"
             d="M1176 639v-178l-1037 -398v197l779 291l-779 287v198z" />
      <glyph glyph-name="question" unicode="?" horiz-adv-x="989"
             d="M244 108q0 56 39 93q41 37 96 37t94 -37t39 -92t-39 -93q-41 -35 -95 -35t-95 35q-39 36 -39 92zM264 999h-176q0 193 117 311t288 118t295 -112q124 -110 123 -288q0 -140 -82 -244t-213 -143q-78 -25 -112 -55q-33 -31 -33 -94l-4 -113h-180v113q0 133 65 208
q68 74 209 117q66 18 119 80q49 66 49 131q0 96 -72 156q-73 60 -167 61q-94 0 -158 -69q-68 -68 -68 -177z" />
      <glyph glyph-name="at" unicode="@" horiz-adv-x="1986"
             d="M1229 262v264q0 109 -78 187q-77 78 -187 78t-187 -77t-77 -187q0 -111 77 -187t185 -76t205 98v-174q-94 -70 -202 -69q-172 0 -291 119q-119 118 -119 288t120 290t287 120q166 0 286 -114t126 -277v-297q0 -135 148 -135q68 0 118 42t86 143q35 101 35 253
q0 307 -230 513q-229 206 -543 206t-528 -220t-214 -532t212 -531q212 -218 527 -218h47v-146h-47q-375 0 -630 261t-255 633t257 635t628 263q246 5 457 -107t341 -315t126 -442q0 -201 -84 -379q-101 -202 -319 -202q-116 0 -197 70q-80 72 -80 222z" />
      <glyph glyph-name="A" unicode="A" horiz-adv-x="1320"
             d="M1098 0l-137 358h-599l-137 -358h-202l536 1411h205l534 -1411h-200zM662 1157l-234 -627h467z" />
      <glyph glyph-name="B" unicode="B" horiz-adv-x="1286"
             d="M756 657h-371v-479h377q98 0 162 67t63 162q0 95 -65 173q-66 77 -166 77zM385 1235v-410h340q86 0 139 60q49 61 49 153t-54 144t-154 53h-320zM1108 1047q0 -227 -178 -295q114 -24 184 -130t70 -214q0 -172 -113 -290t-301 -118h-577v1411h532q175 0 279 -98t104 -266
z" />
      <glyph glyph-name="C" unicode="C" horiz-adv-x="1398"
             d="M100 702q0 299 207 512q209 213 521 213t518 -239l-144 -119q-160 174 -384 174t-376 -158t-152 -383t152 -382q150 -156 380 -156t384 180l144 -121q-206 -243 -520 -243t-523 210q-207 213 -207 512z" />
      <glyph glyph-name="D" unicode="D" horiz-adv-x="1482"
             d="M383 1233v-1055h356q213 0 329 146t116 379q0 232 -117 380q-113 150 -328 150h-356zM739 0h-546v1411h546q293 0 464 -200t171 -507q0 -308 -170 -506t-465 -198z" />
      <glyph glyph-name="E" unicode="E" horiz-adv-x="1157"
             d="M193 0v1411h835v-178h-645v-451h563v-178h-563v-426h666v-178h-856z" />
      <glyph glyph-name="F" unicode="F" horiz-adv-x="1077"
             d="M193 0v1411h823v-178h-633v-451h502v-178h-502v-604h-190z" />
      <glyph glyph-name="G" unicode="G" horiz-adv-x="1548"
             d="M802 1245q-208 0 -360 -159t-152 -384t152 -383q152 -157 356 -157t332 102q123 102 134 279h-402v166h619q0 -352 -174 -543q-179 -186 -487 -186t-514 212t-206 511q0 301 206 513t496 212t488 -187l-137 -127q-143 131 -351 131z" />
      <glyph glyph-name="H" unicode="H" horiz-adv-x="1449"
             d="M1065 1411h192v-1411h-192v614h-682v-614h-190v1411h190v-623h682v623z" />
      <glyph glyph-name="I" unicode="I" horiz-adv-x="575"
             d="M193 0v1411h190v-1411h-190z" />
      <glyph glyph-name="J" unicode="J" horiz-adv-x="575"
             d="M193 1411h190v-1466q0 -209 -110 -334t-324 -125q-35 -1 -154 22l19 181q55 -16 135 -17q121 0 182 74t62 199v1466z" />
      <glyph glyph-name="K" unicode="K" horiz-adv-x="1183"
             d="M383 0h-190v1411h190v-610l467 610h235l-542 -704l655 -707h-256l-559 602v-602z" />
      <glyph glyph-name="L" unicode="L" horiz-adv-x="1013"
             d="M193 0v1411h190v-1233h575v-178h-765z" />
      <glyph glyph-name="M" unicode="M" horiz-adv-x="1912"
             d="M459 1411l497 -1036l498 1036h174l172 -1411h-188l-129 1061l-441 -905h-168l-444 905l-129 -1061h-188l172 1411h174z" />
      <glyph glyph-name="N" unicode="N" horiz-adv-x="1400"
             d="M1208 1411v-1411h-182l-643 1063v-1063h-190v1411h188l637 -1055v1055h190z" />
      <glyph glyph-name="O" unicode="O" horiz-adv-x="1630"
             d="M814 1243q-220 0 -372 -158t-152 -384t150 -382q150 -155 373 -155t374 156t150 382q0 225 -151 383q-152 158 -372 158zM100 703q0 301 206 513t508 212t509 -212t207 -514t-207 -512t-509 -210t-508 212t-206 511z" />
      <glyph glyph-name="P" unicode="P" horiz-adv-x="1241"
             d="M754 1233h-369v-526h358q117 1 179 73t63 187q0 115 -59 192q-61 74 -172 74zM193 0v1411h563q209 0 313 -129q107 -125 107 -313q0 -189 -106 -315t-314 -126h-371v-528h-192z" />
      <glyph glyph-name="Q" unicode="Q" horiz-adv-x="1630"
             d="M814 1243q-220 0 -372 -158t-152 -379q0 -222 139 -372q138 -150 347 -162q92 -6 156 8l-144 234l146 92l160 -258q116 76 180 194t63 260q0 225 -151 383q-152 158 -372 158zM100 703q0 301 206 513t508 212t509 -212t207 -514q0 -188 -88 -350t-248 -264l147 -233
l-147 -91l-158 250q-115 -35 -223 -34q-301 0 -507 212t-206 511z" />
      <glyph glyph-name="R" unicode="R" horiz-adv-x="1267"
             d="M729 1233h-344v-526h336q117 0 176 71q59 76 59 192t-59 189q-55 74 -168 74zM385 528v-528h-192v1411h542q209 0 313 -129t105 -307q-1 -178 -91 -301t-278 -139l377 -535h-231l-365 528h-180z" />
      <glyph glyph-name="S" unicode="S" horiz-adv-x="1173"
             d="M106 408h191q2 -96 86 -174t213 -76q129 0 202 57t87 150q16 193 -240 251l-182 46q-344 88 -344 368q0 174 135 285q130 113 322 113t323 -114t131 -300h-190q0 104 -74 168q-76 63 -186 63t-193 -59q-78 -59 -78 -154q0 -147 201 -196l184 -45q205 -53 301 -166
t77 -275t-146 -266t-330 -104t-348 126q-142 130 -142 302z" />
      <glyph glyph-name="T" unicode="T" horiz-adv-x="1163"
             d="M57 1231v180h1049v-180h-428v-1231h-193v1231h-428z" />
      <glyph glyph-name="U" unicode="U" horiz-adv-x="1388"
             d="M1018 485v926h192v-926q0 -225 -151 -366q-152 -139 -366 -139t-365 139q-150 141 -150 366v926h193v-926q0 -143 95 -232t228 -89q132 0 228 89t96 232z" />
      <glyph glyph-name="V" unicode="V"
             d="M57 1411h199l319 -1089l320 1089h197l-424 -1411h-183z" />
      <glyph glyph-name="W" unicode="W" horiz-adv-x="1845"
             d="M1255 307l355 1104h205l-478 -1411h-166l-249 881l-248 -881h-166l-477 1411h205l354 -1104l260 914h145z" />
      <glyph glyph-name="X" unicode="X" horiz-adv-x="1259"
             d="M1184 1411l-441 -653l494 -758h-229l-379 600l-379 -600h-227l491 758l-438 653h229l324 -498l325 498h230z" />
      <glyph glyph-name="Y" unicode="Y" horiz-adv-x="1286"
             d="M741 0h-196v649l-535 762h228l405 -571l410 571h229l-541 -762v-649z" />
      <glyph glyph-name="Z" unicode="Z" horiz-adv-x="1173"
             d="M86 0v166l745 1065h-716v180h958v-166l-749 -1065h749v-180h-987z" />
      <glyph glyph-name="bracketleft" unicode="[" horiz-adv-x="669"
             d="M584 -465h-412v1876h412v-170h-228v-1536h228v-170z" />
      <glyph glyph-name="backslash" unicode="\" horiz-adv-x="1026"
             d="M963 0h-203l-697 1411h203z" />
      <glyph glyph-name="bracketright" unicode="]" horiz-adv-x="669"
             d="M86 1411h412v-1876h-412v170h227v1536h-227v170z" />
      <glyph glyph-name="underscore" unicode="_" horiz-adv-x="1431"
             d="M141 -223v166h1149v-166h-1149z" />
      <glyph glyph-name="grave" unicode="`" horiz-adv-x="1048"
             d="M686 1135h-178l-244 315h223z" />
      <glyph glyph-name="a" unicode="a" horiz-adv-x="1253"
             d="M911 480q0 146 -96 230t-226 85q-130 0 -218 -87q-88 -86 -88 -226t90 -230t222 -90t224 86t92 232zM1098 0h-185v147q-45 -75 -136 -121t-199 -46q-199 0 -345 139q-141 139 -141 360t139 359t347 139q104 0 200 -43q94 -47 135 -121v143h185v-956z" />
      <glyph glyph-name="b" unicode="b" horiz-adv-x="1253"
             d="M344 480q0 -146 92 -232t224 -86t221 90q90 90 90 229t-89 227t-217 87q-128 0 -225 -84q-96 -85 -96 -231zM342 0h-186v1477h186v-664q98 164 336 164q207 0 345 -138q138 -137 138 -359t-143 -361t-342 -139q-106 0 -198 46t-136 121v-147z" />
      <glyph glyph-name="c" unicode="c" horiz-adv-x="1048"
             d="M604 977q221 0 363 -154l-142 -118q-90 90 -225 90t-229 -87q-95 -86 -95 -228t96 -231t230 -89q135 0 223 94l144 -119q-143 -155 -361 -155t-368 139q-148 141 -148 361t146 358t366 139z" />
      <glyph glyph-name="d" unicode="d" horiz-adv-x="1253"
             d="M909 481q0 145 -96 229t-225 85q-129 0 -217 -87q-88 -88 -88 -228t89 -229t220 -89t224 87t93 232zM1098 0h-187v147q-45 -75 -136 -121t-200 -46q-199 0 -344 139q-139 139 -139 360t138 359t343 139q111 0 201 -43t137 -121v664h187v-1477z" />
      <glyph glyph-name="e" unicode="e" horiz-adv-x="1138"
             d="M1057 481q0 -63 -2 -73h-776q14 -115 102 -191q85 -70 191 -70q207 0 290 148q2 0 6 -2l14 -7q12 -5 32 -12t30 -12l78 -29q-59 -121 -178 -187t-262 -66q-205 0 -351 139q-139 139 -139 362t138 359t350 137q212 0 342 -137q135 -136 135 -359zM580 809q-118 0 -203 -68
q-84 -73 -98 -188h593q-14 115 -94 188q-80 68 -198 68z" />
      <glyph glyph-name="f" unicode="f" horiz-adv-x="702"
             d="M606 1477h105v-179h-105q-180 0 -178 -245v-97h221v-157h-221v-799h-188v799h-185v157h185v97q0 203 92 313t274 111z" />
      <glyph glyph-name="g" unicode="g" horiz-adv-x="1251"
             d="M590 162q131 0 226 86t95 232t-92 231q-92 84 -224 84t-222 -90q-90 -91 -90 -231t88 -226t219 -86zM575 -301q340 0 340 434q0 4 -2 10v13q-41 -82 -135 -129t-200 -47q-206 0 -346 137t-140 360t143 361t343 139q109 0 200 -47q90 -41 135 -123v149h185v-811
q0 -623 -523 -622q-137 -1 -251 67t-181 191q10 2 82 43l74 39q39 -74 116 -119t160 -45z" />
      <glyph glyph-name="h" unicode="h" horiz-adv-x="1187"
             d="M342 516v-516h-186v1477h186v-664q39 80 133 122t182 42q181 0 285 -113t102 -311v-553h-186v541q0 119 -63 184q-61 70 -169 70t-196 -69t-88 -210z" />
      <glyph glyph-name="i" unicode="i" horiz-adv-x="495"
             d="M119 1309q0 51 37 86q41 35 92 35t90 -34t39 -87t-39 -87t-90 -34t-92 35q-37 35 -37 86zM340 0h-184v956h184v-956z" />
      <glyph glyph-name="j" unicode="j" horiz-adv-x="499"
             d="M121 1309q0 51 37 86q41 35 92 35t90 -34t39 -87t-39 -87t-90 -34t-92 35q-37 35 -37 86zM0 -469h-127v174h111q176 0 172 238v1013h188v-1015q0 -410 -344 -410z" />
      <glyph glyph-name="k" unicode="k" horiz-adv-x="1028"
             d="M340 0h-184v1477h184v-854l330 333h254l-410 -413l508 -543h-246l-436 467v-467z" />
      <glyph glyph-name="l" unicode="l" horiz-adv-x="497"
             d="M156 0v1477h186v-1477h-186z" />
      <glyph glyph-name="m" unicode="m" horiz-adv-x="1804"
             d="M1001 516v-516h-186v543q0 119 -57 184q-55 68 -160 68q-104 0 -180 -71t-76 -208v-516h-186v956h186v-143q33 68 109 111q80 43 145 47q276 17 365 -191q100 197 331 197q180 0 273 -111q96 -109 96 -313v-553h-186v541q0 117 -58 186q-63 68 -169 69t-176 -76t-71 -204
z" />
      <glyph glyph-name="n" unicode="n" horiz-adv-x="1153"
             d="M342 516v-516h-186v956h186v-143q41 80 123 122t176 42q180 0 272 -111q96 -109 97 -313v-553h-187v541q0 121 -57 186q-55 68 -163 68q-109 0 -185 -71t-76 -208z" />
      <glyph glyph-name="o" unicode="o" horiz-adv-x="1185"
             d="M907 479q0 143 -90 229t-224 87q-134 0 -225 -86q-92 -87 -92 -229t90 -231t225 -89q136 0 226 88t90 231zM592 -20q-208 0 -354 139t-146 361t144 360t356 137q213 0 357 -138q145 -139 145 -359t-146 -360t-356 -140z" />
      <glyph glyph-name="p" unicode="p" horiz-adv-x="1247"
             d="M344 473q0 -147 94 -229t223 -82t220 86q86 86 86 226t-90 230q-91 90 -223 91t-221 -87t-89 -235zM156 956h186v-149q47 80 137 123q88 47 197 47q201 0 340 -139q139 -138 139 -360t-138 -360t-341 -138q-109 0 -200 43t-134 120v-608h-186v1421z" />
      <glyph glyph-name="q" unicode="q" horiz-adv-x="1247"
             d="M587 162q128 0 223 83t95 229t-92 233q-88 88 -220 88t-221 -89q-89 -88 -89 -230t88 -228t216 -86zM905 956h187v-1421h-187v608q-43 -79 -134 -121t-200 -42q-205 0 -342 137t-137 359t139 362t340 139q106 0 199 -47q90 -41 135 -123v149z" />
      <glyph glyph-name="r" unicode="r" horiz-adv-x="808"
             d="M342 348v-348h-186v956h186v-215q70 236 266 236q113 0 166 -37l-29 -174q-63 33 -141 33q-126 0 -194 -121t-68 -330z" />
      <glyph glyph-name="s" unicode="s" horiz-adv-x="899"
             d="M454 977q136 0 225 -70t101 -200h-178q-8 49 -49 79q-45 29 -100 29t-93 -24q-41 -19 -52 -65t3 -73q23 -47 113 -73l141 -35q248 -61 248 -279q0 -129 -108 -209q-109 -77 -255 -77t-254 84t-110 223h170q12 -74 78 -109q64 -39 138 -35t114 39t45 85q4 50 -31 80
t-96 44l-131 31q-139 37 -205 110q-63 76 -52 190t106 185q96 70 232 70z" />
      <glyph glyph-name="t" unicode="t" horiz-adv-x="671"
             d="M414 1317v-361h202v-157h-202v-799h-187v799h-172v157h172v361h187z" />
      <glyph glyph-name="u" unicode="u"
             d="M811 440v516h186v-956h-186v143q-41 -79 -123 -121t-174 -42q-178 0 -274 112t-95 311v553h187v-540q0 -119 55 -187q55 -67 166 -67t185 70t73 208z" />
      <glyph glyph-name="v" unicode="v" horiz-adv-x="1044"
             d="M432 0l-397 956h196l291 -718l289 718h199z" />
      <glyph glyph-name="w" unicode="w" horiz-adv-x="1617"
             d="M1575 956l-354 -956h-154l-260 702l-252 -702h-152l-364 956h199l239 -669l240 669h180l240 -669l239 669h199z" />
      <glyph glyph-name="x" unicode="x" horiz-adv-x="1024"
             d="M403 524l-311 432h223l197 -280l199 280h223l-313 -432l378 -524h-221l-266 371l-268 -371h-219z" />
      <glyph glyph-name="y" unicode="y" horiz-adv-x="1042"
             d="M1008 956l-594 -1421h-195l201 494l-383 927h199l286 -692l287 692h199z" />
      <glyph glyph-name="z" unicode="z" horiz-adv-x="1028"
             d="M119 956h809v-153l-580 -625h580v-178h-842v154l569 624h-536v178z" />
      <glyph glyph-name="braceleft" unicode="{" horiz-adv-x="819"
             d="M381 293v-356q0 -98 64 -169t157 -71h137v-162h-131q-170 0 -286 111t-117 291v356q0 41 -38 73t-87 31v166q47 0 88 31q37 33 37 74v360q-1 180 115 290t288 109h131v-161h-137q-94 0 -156 -70q-66 -68 -65 -168v-360q0 -64 -27 -114t-73 -75q43 -25 71 -80t29 -106z
" />
      <glyph glyph-name="bar" unicode="|" horiz-adv-x="471"
             d="M172 1628h127v-1872h-127v1872z" />
      <glyph glyph-name="braceright" unicode="}" horiz-adv-x="819"
             d="M438 -63v356q0 51 29 106t72 80q-47 25 -74 75t-27 114v360q0 100 -65 168q-61 70 -156 70h-137v161h131q172 1 289 -109t114 -290v-360q0 -41 37 -74q41 -31 88 -31v-166q-49 1 -87 -31t-38 -73v-356q0 -180 -116 -291t-287 -111h-131v162h137q93 0 157 71t64 169z" />
    </font>
</defs>
</svg>
