<?xml version="1.0" standalone="no"?>
<!DOCTYPE svg PUBLIC "-//W3C//DTD SVG 1.1//EN" "http://www.w3.org/Graphics/SVG/1.1/DTD/svg11.dtd" >
<svg xmlns="http://www.w3.org/2000/svg">
<metadata>Generated by IcoMoon</metadata>
<defs>
<font id="bdvWidgetIconSet" horiz-adv-x="1024">
<font-face units-per-em="1024" ascent="960" descent="-64" />
<missing-glyph horiz-adv-x="1024" />
<glyph unicode="&#x20;" horiz-adv-x="512" d="" />
<glyph unicode="&#xe900;" glyph-name="Nursery" d="M504.158 495.049c-105.267 0-190.874 85.606-190.874 190.874s85.606 190.874 190.874 190.874c105.267 0 190.874-85.606 190.874-190.874s-85.606-190.874-190.874-190.874zM504.158 835.836c-82.739 0-149.914-67.174-149.914-149.914s67.174-149.914 149.914-149.914 149.914 67.174 149.914 149.914-67.174 149.914-149.914 149.914zM508.049-50.334c-83.354 0-151.962 39.731-198.246 114.893-37.274 60.416-58.778 143.974-58.778 228.966 0 77.005 26.214 140.493 75.571 183.091 45.261 38.912 107.93 59.597 181.453 59.597 74.138 0 138.035-20.48 184.934-59.187 52.224-43.008 79.872-106.496 79.872-183.296 0-84.173-22.938-167.731-62.874-229.376-48.538-75.162-118.374-114.688-201.933-114.688zM508.049 495.049c-135.168 0-216.064-75.366-216.064-201.523 0-77.619 19.251-153.19 52.634-207.462 39.117-63.488 94.208-95.437 163.43-95.437 164.25 0 223.846 181.248 223.846 303.104 0.205 148.48-115.507 201.318-223.846 201.318zM678.648 143.612c-1.024 0-2.048 0-3.277 0-62.464 1.434-147.456 46.080-252.314 132.71-76.39 63.078-134.554 124.723-137.011 127.386l29.901 28.058c63.898-67.994 253.133-244.736 360.448-247.194 19.251-0.41 34.406 4.915 46.285 16.179l28.467-29.491c-19.046-18.227-43.418-27.648-72.499-27.648zM492.075 232.495c-11.264 0-20.48 9.216-20.48 20.48s9.216 20.48 20.48 20.48c79.053 0 173.056 124.723 174.285 175.718 0.205 11.264 9.626 20.275 21.094 19.866 11.264-0.205 20.275-9.626 19.866-21.094-1.024-36.454-28.467-89.498-70.042-135.168-46.49-50.995-99.533-80.282-145.203-80.282zM511.941 835.836c-10.445 0-19.456 7.987-20.275 18.637-0.205 2.458-4.71 61.85 34.611 88.883 9.421 6.349 22.118 4.096 28.467-5.325s4.096-22.118-5.325-28.467c-16.384-11.264-17.818-41.165-16.998-51.814 0.819-11.264-7.578-21.094-18.842-22.118-0.41 0.205-1.024 0.205-1.638 0.205zM476.555 705.915c0-9.275-7.519-16.794-16.794-16.794s-16.794 7.519-16.794 16.794c0 9.275 7.519 16.794 16.794 16.794s16.794-7.519 16.794-16.794zM583.256 705.915c0-9.275-7.519-16.794-16.794-16.794s-16.794 7.519-16.794 16.794c0 9.275 7.519 16.794 16.794 16.794s16.794-7.519 16.794-16.794zM476.35 664.34h71.066c0 0-1.434-32.154-35.021-32.154s-36.045 32.154-36.045 32.154z" />
<glyph unicode="&#xe901;" glyph-name="Pin" d="M458.138 344.986v-265.626l37.274-55.91c6.144-9.421 18.842-11.878 28.262-5.53 2.253 1.434 4.096 3.482 5.53 5.53l37.274 55.91v265.626c-35.635-6.963-72.499-6.963-108.339 0v0zM512.41 882.176c-134.758 0-244.122-109.363-244.122-244.122s109.363-244.122 244.122-244.122c134.758 0 244.122 109.363 244.122 244.122 0 0 0 0 0 0 0 134.758-109.363 244.122-244.122 244.122 0 0 0 0 0 0zM512.41 753.357c-63.693 0-115.302-51.61-115.302-115.302 0-11.264-9.011-20.275-20.275-20.275s-20.275 9.011-20.275 20.275c0.205 86.016 69.837 155.853 156.058 156.058 11.264 0 20.275-9.216 20.275-20.275-0.205-11.469-9.216-20.48-20.48-20.48z" />
<glyph unicode="&#xe902;" glyph-name="Police" d="M514.253 293.11c-146.432 0-286.31 47.309-292.25 49.357-10.035 3.482-16.179 11.674-13.722 21.709-0.205 3.686-3.482 23.757-36.045 56.115-13.107 13.107-44.032 18.637-71.475 23.552-38.707 6.963-75.366 13.722-89.498 41.984-8.192 16.384-6.144 36.454 5.53 59.597 24.986 49.152 69.837 56.73 121.856 65.536 59.802 10.24 134.349 22.733 222.618 99.738 0.41 0.41 1.024 0.819 1.638 1.229 9.421 6.758 18.637 13.722 27.648 20.48 38.912 29.491 75.776 57.344 120.832 57.344 43.008 0 91.75-40.755 127.181-70.656 7.168-5.939 13.312-11.264 18.227-14.95 0.41-0.41 0.819-0.614 1.229-1.024 75.776-67.789 155.034-80.691 218.931-90.931 59.392-9.626 110.797-17.818 132.096-68.198 9.83-22.938 10.445-42.598 2.253-58.573-14.131-27.034-48.742-34.202-82.125-41.165-25.805-5.325-52.429-10.854-64.717-23.757-32.358-33.997-36.045-55.296-36.454-58.573 1.024-9.626-4.915-16.998-14.131-19.866-6.554-1.638-153.395-48.947-299.622-48.947zM247.398 377.487c36.864-11.264 151.347-43.213 266.65-43.213 116.736 0 237.568 32.768 275.046 43.622 4.301 15.36 15.565 39.936 45.466 71.27 21.094 22.118 55.501 29.286 86.016 35.635 21.914 4.506 49.152 10.24 54.272 20.070 2.253 4.301 1.024 12.698-3.482 23.552-12.083 28.262-42.803 34.406-100.966 43.827-65.126 10.445-154.419 24.986-239.002 100.352-5.53 4.096-11.674 9.421-19.046 15.565-27.238 22.733-72.704 61.030-100.966 61.030-31.13 0-61.235-22.733-96.051-49.152-9.011-6.758-18.227-13.722-27.853-20.685-96.666-83.968-180.634-98.304-242.074-108.544-51.61-8.806-77.21-14.336-92.16-43.622-5.325-10.445-7.373-18.842-5.325-22.733 4.915-9.83 36.864-15.77 60.006-19.866 34.816-6.349 70.656-12.902 92.774-34.816 31.744-31.539 43.008-56.525 46.694-72.294zM827.597 361.923v0 0zM208.282 363.766c0 0 0 0 0 0s0 0 0 0zM514.867 388.547c-26.624 0-64.102 14.95-94.413 85.197-16.589 38.502-23.962 76.595-24.371 78.029l-0.819 4.096 0.819 4.096c0.614 3.072 17.203 72.090 116.531 72.090 1.024 0 2.048 0 3.277 0 83.149-1.229 109.568-49.357 111.821-74.752l0.205-2.458-0.41-2.458c-0.205-1.638-5.53-39.117-20.275-77.414-27.238-71.066-64.717-86.426-91.341-86.835-0.205 0.41-0.614 0.41-1.024 0.41zM437.453 554.435c9.421-44.237 38.707-125.542 78.029-124.928 42.598 0.819 65.741 90.112 71.475 125.747-2.048 8.192-13.312 35.021-71.27 35.84-57.754 1.024-74.342-26.829-78.234-36.659zM520.192 104.284c-120.422 0-198.042 41.37-242.483 76.595-49.971 39.731-69.632 80.486-70.451 82.33-3.482 7.373-2.253 16.179 3.277 22.323s14.131 8.397 21.914 5.734c1.638-0.614 136.192-45.056 277.914-45.056 142.541 0 296.755 44.851 298.189 45.261 7.373 2.253 15.565 0 20.685-5.734 5.325-5.734 6.963-13.926 4.096-21.094-0.614-1.638-15.77-41.165-61.85-80.486-41.165-35.226-116.736-77.824-242.483-79.872-2.867 0.205-5.734 0-8.806 0zM277.914 235.971c7.578-7.782 16.589-16.179 27.034-24.371 58.163-45.466 133.325-67.789 223.437-66.15 88.678 1.434 162.816 25.19 214.63 68.403 10.24 8.602 18.842 17.203 25.6 25.19-58.982-13.926-160.154-33.587-258.458-33.587-90.931 0-177.562 16.998-232.243 30.515z" />
<glyph unicode="&#xe903;" glyph-name="Pollution" d="M248.218 542.208c-23.552 0-42.598 19.046-42.598 42.598-0.205 139.674 113.459 253.338 252.928 253.338h0.205c58.573 0 114.893-20.275 159.744-56.73 40.141 23.757 90.726 26.419 137.83 5.325 64.102-28.672 101.99-92.57 94.003-158.72-2.867-23.347-23.962-40.141-47.514-37.274-23.347 2.867-40.141 23.962-37.274 47.514 4.301 35.635-21.094 60.416-44.237 70.656-10.445 4.71-46.694 17.613-73.114-12.493-8.192-9.216-19.661-14.336-31.949-14.336v0c-12.288 0-23.757 5.12-31.949 14.336-31.744 35.84-77.619 56.525-125.542 56.525 0 0 0 0-0.205 0-92.57 0-167.731-75.366-167.731-167.936 0.205-23.757-19.046-42.803-42.598-42.803v0zM979.149 454.963c-0.205 0-0.41 0-0.819 0-23.552 0.41-42.394 19.866-41.984 43.418 0.205 15.36-6.554 40.141-26.624 59.802-22.938 22.528-58.368 33.587-102.81 32.358-23.552-0.819-43.213 17.818-44.032 41.37s17.818 43.213 41.37 44.032c86.221 2.867 137.421-29.286 165.274-56.73 33.382-32.768 52.838-78.438 52.019-122.061-0.205-23.552-19.251-42.189-42.394-42.189zM799.334 248.32c-22.323 0-41.165 17.408-42.598 39.936-1.434 23.552 16.384 43.827 39.936 45.261 50.586 3.277 93.594 24.576 117.965 58.368 24.166 33.587 29.491 79.462 15.155 132.506-6.144 22.733 7.373 46.080 30.106 52.224s46.080-7.373 52.224-30.106c26.624-99.328-0.614-165.888-28.262-204.39-39.322-54.682-105.677-88.883-181.862-93.798-0.819 0-1.843 0-2.662 0zM186.573 250.368c-1.229 0-2.458 0-3.891 0.205-14.95 1.229-29.696 3.891-44.237 7.578-0.614 0.205-1.024 0.205-1.434 0.41-48.742 14.541-88.883 47.309-113.050 91.955s-29.491 96.256-14.95 144.998c14.541 48.742 47.309 88.883 91.955 113.050 44.851 24.166 96.256 29.491 144.998 14.95 22.528-6.758 35.43-30.515 28.672-53.043s-30.515-35.43-53.043-28.672c-26.829 7.987-55.296 5.12-80.077-8.192s-42.803-35.43-50.79-62.464c-7.987-26.829-5.12-55.296 8.192-80.077 13.107-24.576 35.021-42.394 61.645-50.586 9.626-2.458 19.661-4.096 29.696-5.12 23.552-2.048 40.755-22.733 38.707-46.285-2.048-21.914-20.685-38.707-42.394-38.707zM462.848 651.776c0-23.187-18.797-41.984-41.984-41.984s-41.984 18.797-41.984 41.984c0 23.187 18.797 41.984 41.984 41.984s41.984-18.797 41.984-41.984zM561.152 528.896c0-23.187-18.797-41.984-41.984-41.984s-41.984 18.797-41.984 41.984c0 23.187 18.797 41.984 41.984 41.984s41.984-18.797 41.984-41.984zM403.456 487.936c0-23.187-18.797-41.984-41.984-41.984s-41.984 18.797-41.984 41.984c0 23.187 18.797 41.984 41.984 41.984s41.984-18.797 41.984-41.984zM300.237 154.522c-15.974 9.011-28.262 21.914-36.864 38.707s-12.902 36.454-12.902 58.982 4.301 42.189 12.902 58.778c8.602 16.589 20.89 29.491 36.864 38.502s34.611 13.517 55.91 13.517c26.829 0 49.971-7.373 69.427-22.118 3.072-2.458 5.12-4.915 6.349-7.373s1.843-5.53 1.843-9.216c0-5.325-1.434-9.83-4.506-13.722s-6.554-5.734-10.854-5.734c-2.867 0-5.325 0.41-7.578 1.024-2.048 0.614-4.506 2.048-7.168 3.891-8.192 5.325-15.77 9.216-22.733 11.469s-14.336 3.482-22.528 3.482c-19.661 0-34.406-6.144-44.442-18.227-10.035-12.288-14.95-30.31-14.95-54.477 0-48.742 19.661-73.114 59.187-73.114 7.578 0 14.746 1.229 21.504 3.482s14.541 6.144 23.757 11.469c3.072 1.843 5.53 3.072 7.782 3.891 2.048 0.614 4.301 1.024 6.963 1.024 4.301 0 7.987-1.843 10.854-5.734s4.506-8.397 4.506-13.722c0-3.686-0.614-6.758-2.048-9.421s-3.482-4.915-6.349-7.168c-19.456-14.746-42.598-22.118-69.427-22.118-20.89 0.41-39.526 4.915-55.501 13.926zM488.448 154.726c-15.974 9.011-28.058 21.914-36.659 38.707-8.602 16.589-12.902 36.25-12.902 58.778s4.301 42.189 12.902 58.778 20.89 29.491 36.659 38.502 34.611 13.517 56.115 13.517 40.141-4.506 56.115-13.517c15.77-9.011 28.058-21.914 36.659-38.502 8.602-16.794 12.902-36.25 12.902-58.778s-4.301-42.189-12.902-58.778c-8.602-16.794-20.89-29.696-36.659-38.707-15.974-9.216-34.611-13.722-56.115-13.722s-40.346 4.506-56.115 13.722zM586.957 197.12c10.24 12.698 15.565 31.13 15.565 55.091s-5.12 42.189-15.36 54.886c-10.24 12.698-24.576 18.842-42.803 18.842s-32.358-6.349-42.598-18.842-15.155-30.925-15.155-54.886 5.12-42.394 15.36-55.091c10.24-12.698 24.371-19.046 42.394-19.046s32.358 6.349 42.598 19.046zM743.219 262.861c0-6.349-3.891-9.83-11.264-9.83h-57.139c-3.072 0-5.734 1.024-7.578 2.867s-2.867 4.301-2.867 7.168c0 3.686 1.434 6.963 4.301 10.035l33.792 35.84c7.578 7.987 11.469 15.36 11.469 22.118 0 4.301-1.229 7.373-3.686 9.626-2.458 2.048-5.939 3.277-10.24 3.277-3.891 0-7.578-0.819-10.854-2.048s-7.168-3.277-11.469-5.939c-1.843-1.024-3.072-1.843-3.891-2.048-1.024-0.41-2.048-0.614-3.277-0.614-2.048 0-3.891 1.024-5.53 2.867-1.638 2.048-2.253 4.301-2.253 6.963 0 1.843 0.205 3.686 1.024 4.71 0.614 1.229 1.843 2.458 3.277 3.482 4.71 3.277 10.035 6.144 15.974 8.192s12.083 2.867 18.022 2.867c7.168 0 13.517-1.229 19.046-3.686s9.83-5.939 12.698-10.445 4.506-9.83 4.506-15.77c0-6.144-1.434-12.083-3.891-17.408-2.662-5.325-6.963-11.264-13.107-17.818l-23.962-24.986h35.635c7.578 0.205 11.264-3.072 11.264-9.421zM237.568 428.544c0-23.187-18.797-41.984-41.984-41.984s-41.984 18.797-41.984 41.984c0 23.187 18.797 41.984 41.984 41.984s41.984-18.797 41.984-41.984zM710.656 455.168c0-23.187-18.797-41.984-41.984-41.984s-41.984 18.797-41.984 41.984c0 23.187 18.797 41.984 41.984 41.984s41.984-18.797 41.984-41.984zM880.64 487.936c0-23.187-18.797-41.984-41.984-41.984s-41.984 18.797-41.984 41.984c0 23.187 18.797 41.984 41.984 41.984s41.984-18.797 41.984-41.984zM712.704 612.864c0-23.187-18.797-41.984-41.984-41.984s-41.984 18.797-41.984 41.984c0 23.187 18.797 41.984 41.984 41.984s41.984-18.797 41.984-41.984z" />
<glyph unicode="&#xe904;" glyph-name="Pompier" d="M545.178-36.966l14.541 37.274c0.41 1.229 45.875 121.037 12.698 191.488-126.566-87.859-140.698-188.826-140.902-189.85l-3.277-25.19-23.962 8.397c-1.638 0.614-41.779 14.746-84.582 46.899-57.754 43.418-93.184 98.918-102.195 160.563-9.011 60.621 29.901 200.499 115.712 415.539 63.283 158.31 129.638 301.466 130.458 302.899l15.36 32.973 20.275-30.31c1.434-2.048 34.202-52.019 51.814-145.203 14.336-76.39 20.685-196.608-23.962-351.642 119.603 92.16 105.267 271.974 105.062 274.022l38.502 11.264c7.578-14.541 184.32-356.966 160.768-509.542-24.781-159.334-238.592-217.088-247.603-219.341l-38.707-10.24zM583.475 247.91l11.469-14.95c45.67-59.392 29.696-154.419 15.36-207.872 57.958 22.528 165.683 76.8 180.634 173.466 8.806 56.73-15.155 158.106-69.427 293.274-17.818 44.442-36.25 85.606-51.61 118.374-2.048-15.974-5.12-33.382-9.83-51.61-24.576-97.485-79.872-168.755-160.358-205.824l-43.622-20.275 15.77 45.466c58.778 170.598 53.862 300.851 39.322 380.314-7.782 41.779-18.842 74.342-28.058 96.666-81.51-179.2-239.821-556.237-225.075-656.179 13.926-94.618 98.714-146.227 138.854-165.683 13.312 42.803 53.453 130.662 170.803 205.005l15.77 9.83zM770.048 645.632c-12.083 0-21.299 2.458-23.142 2.867l-9.216 2.458-146.227 315.392 63.488-45.875c1.843-1.229 44.442-32.154 87.859-71.68 62.464-56.73 92.774-100.352 92.774-133.53 0-31.744-13.107-48.333-24.166-56.73-13.107-10.24-28.877-12.902-41.37-12.902zM766.362 686.797c6.758-0.41 15.155 0.205 20.48 4.301 5.12 4.096 7.782 12.083 7.782 24.166 0 7.373-5.734 36.25-79.462 103.219-5.734 5.325-11.469 10.24-17.203 15.155l68.403-146.842zM164.659 283.341c-10.24 0-23.552 2.253-36.045 11.469-18.022 13.312-27.648 36.454-28.467 68.608v0c-0.819 36.454 20.685 76.8 63.898 120.218 30.515 30.515 60.826 51.405 62.259 52.429l47.309 32.358-81.715-279.962-10.854-3.072c-1.434-0.41-7.782-2.048-16.384-2.048zM141.107 364.442c0.41-18.227 4.506-31.13 11.674-36.454 2.253-1.638 4.71-2.662 7.168-3.072l39.731 136.602c-29.901-28.877-59.392-65.741-58.573-97.075v0z" />
<glyph unicode="&#xe905;" glyph-name="PowerLevel1" d="M225.286 151.040c-22.528 0-40.96 18.432-40.96 40.96v184.32c0 22.528 18.432 40.96 40.96 40.96s40.96-18.432 40.96-40.96v-184.32c0-22.528-18.432-40.96-40.96-40.96z" />
<glyph unicode="&#xe906;" glyph-name="PowerLevel2" d="M225.286 151.040c-22.528 0-40.96 18.432-40.96 40.96v184.32c0 22.528 18.432 40.96 40.96 40.96s40.96-18.432 40.96-40.96v-184.32c0-22.528-18.432-40.96-40.96-40.96zM368.646 151.040c-22.528 0-40.96 18.432-40.96 40.96v266.24c0 22.528 18.432 40.96 40.96 40.96s40.96-18.432 40.96-40.96v-266.24c0-22.528-18.432-40.96-40.96-40.96z" />
<glyph unicode="&#xe907;" glyph-name="PowerLevel3" d="M225.286 151.040c-22.528 0-40.96 18.432-40.96 40.96v184.32c0 22.528 18.432 40.96 40.96 40.96s40.96-18.432 40.96-40.96v-184.32c0-22.528-18.432-40.96-40.96-40.96zM368.646 151.040c-22.528 0-40.96 18.432-40.96 40.96v266.24c0 22.528 18.432 40.96 40.96 40.96s40.96-18.432 40.96-40.96v-266.24c0-22.528-18.432-40.96-40.96-40.96zM512.006 151.040c-22.528 0-40.96 18.432-40.96 40.96v348.16c0 22.528 18.432 40.96 40.96 40.96s40.96-18.432 40.96-40.96v-348.16c0-22.528-18.432-40.96-40.96-40.96z" />
<glyph unicode="&#xe908;" glyph-name="PowerLevel4" d="M225.286 151.040c-22.528 0-40.96 18.432-40.96 40.96v184.32c0 22.528 18.432 40.96 40.96 40.96s40.96-18.432 40.96-40.96v-184.32c0-22.528-18.432-40.96-40.96-40.96zM368.646 151.040c-22.528 0-40.96 18.432-40.96 40.96v266.24c0 22.528 18.432 40.96 40.96 40.96s40.96-18.432 40.96-40.96v-266.24c0-22.528-18.432-40.96-40.96-40.96zM512.006 151.040c-22.528 0-40.96 18.432-40.96 40.96v348.16c0 22.528 18.432 40.96 40.96 40.96s40.96-18.432 40.96-40.96v-348.16c0-22.528-18.432-40.96-40.96-40.96zM655.366 151.040c-22.528 0-40.96 18.432-40.96 40.96v430.080c0 22.528 18.432 40.96 40.96 40.96s40.96-18.432 40.96-40.96v-430.080c0-22.528-18.432-40.96-40.96-40.96z" />
<glyph unicode="&#xe909;" glyph-name="PowerLevel5" d="M225.286 151.040c-22.528 0-40.96 18.432-40.96 40.96v184.32c0 22.528 18.432 40.96 40.96 40.96s40.96-18.432 40.96-40.96v-184.32c0-22.528-18.432-40.96-40.96-40.96zM368.646 151.040c-22.528 0-40.96 18.432-40.96 40.96v266.24c0 22.528 18.432 40.96 40.96 40.96s40.96-18.432 40.96-40.96v-266.24c0-22.528-18.432-40.96-40.96-40.96zM512.006 151.040c-22.528 0-40.96 18.432-40.96 40.96v348.16c0 22.528 18.432 40.96 40.96 40.96s40.96-18.432 40.96-40.96v-348.16c0-22.528-18.432-40.96-40.96-40.96zM655.366 151.040c-22.528 0-40.96 18.432-40.96 40.96v430.080c0 22.528 18.432 40.96 40.96 40.96s40.96-18.432 40.96-40.96v-430.080c0-22.528-18.432-40.96-40.96-40.96zM798.726 151.040c-22.528 0-40.96 18.432-40.96 40.96v512c0 22.528 18.432 40.96 40.96 40.96s40.96-18.432 40.96-40.96v-512c0-22.528-18.432-40.96-40.96-40.96z" />
<glyph unicode="&#xe90a;" glyph-name="Restaurant" d="M726.016-61.542c-77.824 0-119.194 66.15-119.194 113.664 0 21.709 1.638 309.043 2.048 400.794-6.349 3.482-13.107 7.987-20.070 13.107-35.226 26.829-53.862 62.464-53.862 103.219v192.307c-0.41 12.493 0 88.678 53.453 144.384 34.406 35.635 81.51 53.658 140.083 53.658 58.778 0 105.677-18.227 139.059-54.272 51.2-55.091 49.971-129.843 49.357-144.589v-191.283c0-63.078-36.659-100.147-70.246-118.374v-399.77c0-52.634-45.67-110.797-119.398-112.845-0.41 0-0.819 0-1.229 0zM728.474 874.189c-35.021 0-60.621-9.011-78.643-27.648-30.106-31.334-29.696-82.33-29.696-82.944s0-1.024 0-1.638v-192.717c0-33.587 43.622-48.333 44.237-48.538 17.818-5.734 29.901-22.323 29.901-40.96 0-4.096-2.253-402.637-2.253-427.827 0-0.205 4.506-28.058 33.382-28.467 29.286 1.229 35.84 24.166 35.84 27.648v428.851c0 20.48 13.312 37.888 33.382 41.574 1.843 0.41 11.674 3.482 20.685 10.854 11.059 9.011 16.179 20.89 16.179 37.069v192.512c0 1.229 0 1.843 0 2.867 0.205 2.867 1.843 52.019-26.829 82.534-16.794 18.227-41.779 26.829-76.186 26.829zM295.731-63.59c-77.824 0-119.194 66.15-119.194 113.664 0 21.709 1.638 309.043 2.048 400.794-6.349 3.482-13.107 7.987-20.070 13.107-35.226 26.829-53.862 62.464-53.862 103.219v347.955c0.205 23.552 19.251 42.803 42.803 42.803s42.598-19.046 42.598-42.598v-347.75c0-32.563 40.755-47.309 44.237-48.538 18.022-5.53 29.696-21.914 29.696-40.96 0-4.096-2.253-402.637-2.253-427.827 0-0.205 4.506-28.058 33.382-28.467 29.286 1.229 35.84 24.166 35.84 27.648v428.442c0 20.275 12.493 37.274 32.358 41.37 7.782 2.458 30.515 12.493 30.515 48.128v347.75c0 23.552 19.046 42.598 42.598 42.598s42.598-19.046 42.598-42.598v-347.75c0-61.44-32.358-98.304-62.874-116.941v-401.203c0-52.634-45.67-110.797-119.398-112.845-0.205 0-0.614 0-1.024 0zM234.701 518.861v0 0zM295.526 587.264c-23.552 0-42.598 19.046-42.598 42.598v285.286c0 23.552 19.046 42.598 42.598 42.598s42.598-19.046 42.598-42.598v-285.286c0-23.552-19.046-42.598-42.598-42.598z" />
<glyph unicode="&#xe90b;" glyph-name="RestaurantU" d="M809.832 296.542h-594.739c-35.021 0-63.488 28.467-63.488 63.488s28.467 63.488 63.488 63.488h594.944c35.021 0 63.488-28.467 63.488-63.488-0.205-35.021-28.672-63.488-63.693-63.488zM215.093 382.558c-12.493 0-22.528-10.035-22.528-22.528s10.035-22.528 22.528-22.528h594.944c12.493 0 22.528 10.035 22.528 22.528s-10.035 22.528-22.528 22.528h-594.944zM762.319 185.745h-496.435c-33.792 0-61.44 27.648-61.44 61.44v90.317h619.315v-90.317c0-33.792-27.443-61.44-61.44-61.44zM245.404 296.542v-49.357c0-11.264 9.216-20.48 20.48-20.48h496.435c11.264 0 20.48 9.216 20.48 20.48v49.357h-537.395zM798.364 382.558h-573.44c-10.854 0-19.661 8.397-20.48 19.251-0.41 5.325-7.578 132.096 77.005 222.413 53.453 57.139 130.867 86.016 229.99 86.016s176.538-28.877 229.99-86.016c84.582-90.317 77.414-217.088 77.005-222.413-0.41-10.854-9.216-19.251-20.070-19.251zM245.404 423.518h532.275c-1.638 35.84-11.674 114.893-66.15 172.851-45.466 48.333-112.64 72.909-199.885 72.909s-154.419-24.576-199.885-72.909c-54.682-58.163-64.717-137.011-66.355-172.851zM401.461 582.238c0-10.745-8.711-19.456-19.456-19.456s-19.456 8.711-19.456 19.456c0 10.745 8.711 19.456 19.456 19.456s19.456-8.711 19.456-19.456zM516.149 610.91c0-10.745-8.711-19.456-19.456-19.456s-19.456 8.711-19.456 19.456c0 10.745 8.711 19.456 19.456 19.456s19.456-8.711 19.456-19.456zM630.837 600.67c0-10.745-8.711-19.456-19.456-19.456s-19.456 8.711-19.456 19.456c0 10.745 8.711 19.456 19.456 19.456s19.456-8.711 19.456-19.456zM702.517 496.222c0-10.745-8.711-19.456-19.456-19.456s-19.456 8.711-19.456 19.456c0 10.745 8.711 19.456 19.456 19.456s19.456-8.711 19.456-19.456zM575.541 526.942c0-10.745-8.711-19.456-19.456-19.456s-19.456 8.711-19.456 19.456c0 10.745 8.711 19.456 19.456 19.456s19.456-8.711 19.456-19.456zM464.949 475.742c0-10.745-8.711-19.456-19.456-19.456s-19.456 8.711-19.456 19.456c0 10.745 8.711 19.456 19.456 19.456s19.456-8.711 19.456-19.456zM340.021 496.222c0-10.745-8.711-19.456-19.456-19.456s-19.456 8.711-19.456 19.456c0 10.745 8.711 19.456 19.456 19.456s19.456-8.711 19.456-19.456z" />
<glyph unicode="&#xe90c;" glyph-name="Reussite" d="M789.588 77.951h-155.648l-222.822 0.41c-0.205 0-0.41 0-0.614 0-25.805 0.819-39.322 14.746-48.333 23.757-7.578 7.578-9.626 9.216-14.746 9.216h-28.877c-11.264 0-20.48 9.216-20.48 20.48s9.216 20.48 20.48 20.48h29.082c22.938 0 35.021-12.493 44.032-21.709 7.782-7.987 11.264-11.264 20.070-11.469l378.061-0.205c9.216 0 18.022 3.686 24.576 10.445 6.349 6.349 9.626 14.746 9.421 23.347-0.205 12.083-28.467 30.106-38.707 30.925-11.264 0.41-20.070 9.626-19.866 20.685 0.205 11.264 9.421 20.275 20.48 20.275 18.022 0 42.394 10.035 54.477 22.323 4.096 4.096 6.349 8.192 6.349 11.059-0.205 18.022-29.286 35.43-42.598 35.635-11.264 0.205-20.275 9.421-20.070 20.685s9.216 20.275 20.48 20.275c0 0 0 0 0.205 0 21.094 0 50.79 11.878 64.922 25.805 4.71 4.71 6.349 8.397 6.349 10.24 0 15.565-23.962 33.178-44.851 33.178-11.264 0-20.48 9.216-20.48 20.48s9.216 20.48 20.48 20.48c31.334 0 63.078 20.275 63.078 34.816 0 14.336-4.301 31.13-25.19 31.13l-279.962-0.205c0 0 0 0 0 0-7.782 0-14.746 4.301-18.227 11.264s-2.867 15.155 1.638 21.299c7.373 11.059 41.165 85.811 33.587 140.083-4.301 22.938-21.504 90.522-27.443 113.254-4.096 11.264-12.083 13.926-40.141 13.722-23.552-2.048-32.154-14.131-33.382-17.408 0.205-9.83 1.843-17.203 3.891-26.010 5.12-21.914 10.854-46.694-6.349-105.267 0-0.205-0.205-0.614-0.205-0.819-29.082-86.63-156.467-225.69-173.875-236.544-9.626-5.939-22.323-3.072-28.262 6.554-5.939 9.421-3.072 21.914 6.144 27.853 14.336 11.059 131.686 139.674 157.082 214.63 13.926 47.923 9.83 65.536 5.53 84.173-2.253 9.83-4.915 21.094-4.915 36.045 0 20.89 22.733 53.658 71.885 57.549 0.41 0 1.024 0 1.434 0 24.371 0.205 65.331 0.614 80.282-41.779 0.205-0.41 0.205-0.819 0.41-1.434 6.349-23.142 23.962-93.389 28.467-117.555 0-0.205 0-0.614 0.205-0.819 6.554-47.718-10.445-103.014-24.986-137.83l246.989 0.41c39.526 0 66.15-29.082 66.15-72.090 0-24.781-17.818-45.875-42.394-59.597 14.336-13.107 24.166-30.31 24.166-49.562 0-13.722-6.349-27.238-18.227-39.117-9.011-9.011-21.299-16.998-34.816-23.347 13.926-13.107 23.962-30.31 24.166-49.562 0.205-14.131-6.144-28.058-18.227-40.346-7.578-7.578-17.203-14.336-28.058-19.866 14.95-13.517 23.142-29.082 23.347-44.646 0.41-19.866-7.168-38.502-21.094-52.838-14.541-14.541-33.997-22.938-54.067-22.938zM306.465 458.879c0 0-0.205-0.205-0.205-0.205s0 0.205 0.205 0.205zM504.506 792.293v0 0zM504.711 793.522c0 0 0 0 0 0s0 0 0 0zM273.082 45.797h-118.374c-35.021 0-63.488 28.467-63.488 63.488v330.342c0 35.021 28.467 63.488 63.488 63.488h118.579c35.021 0 63.488-28.467 63.488-63.488v-330.547c-0.205-34.816-28.672-63.283-63.693-63.283zM154.708 461.951c-12.288 0-22.528-10.035-22.528-22.528v-330.342c0-12.288 10.035-22.528 22.528-22.528h118.579c12.288 0 22.528 10.035 22.528 22.528v330.547c0 12.288-10.035 22.528-22.528 22.528h-118.579z" />
<glyph unicode="&#xe90d;" glyph-name="Scooter" d="M750.762 775.68h-77.824c-7.373 31.539-37.069 53.658-70.451 53.658h-11.059c-9.216 36.864-41.984 62.669-79.667 63.078-37.069 0-68.608-24.166-77.824-63.078h-11.059c-33.382 0-61.235-24.166-70.451-53.658h-77.824c-11.059 0-18.432-7.373-18.432-18.432s7.373-18.637 18.432-18.637h77.824c4.096-16.384 13.926-30.925 27.853-40.755-17.203-15.155-27.853-36.454-29.696-59.392l-11.059-320.512c-1.843-70.451 40.755-133.325 103.834-161.178v-114.893c0.205-21.504 17.408-38.707 38.912-38.912h49.766c21.504 0.205 38.707 17.408 38.912 38.912v114.893c63.078 26.010 105.677 90.726 103.834 161.178l-9.216 320.512c0 22.323-11.059 40.755-24.166 55.501 14.746 11.059 27.853 26.010 31.539 44.442h77.824c11.059 0 18.432 7.373 18.432 18.432 0 10.445-8.192 18.842-18.432 18.842zM511.76 855.347c24.371-0.41 44.032-20.070 44.442-44.442 0-24.576-19.866-44.442-44.442-44.442s-44.442 19.866-44.442 44.442c0.205 24.371 20.070 44.032 44.442 44.442zM420.829 792.269h11.059c9.216-35.226 40.755-63.078 77.824-63.078 38.912 0 70.451 26.010 79.667 63.078h11.059c19.456 0 35.226-15.77 35.226-35.226 0 0 0 0 0 0 0-20.48-16.589-37.069-37.069-38.912-59.392-1.843-118.579-1.843-177.971 0-20.48 0-37.069 18.432-37.069 38.912 2.253 18.637 18.842 35.226 37.274 35.226zM539.408 679.424l-18.432-137.216c0-5.12-4.096-9.216-9.216-9.216s-9.216 4.096-9.216 9.216l-18.432 137.216h55.296zM508.074 329.216c-29.696 0-57.344 53.658-68.608 85.197h135.168c-9.216-31.539-37.069-85.197-66.56-85.197v0zM532.036 40.038h-49.971c-1.024 0-1.843 0.819-1.843 1.843 0 0 0 0 0 0v255.795c9.216-3.686 18.432-7.373 27.853-7.373 9.626 0 19.046 1.843 27.853 5.53v-255.795c-2.048 1.843-2.048 0-3.891 0v0zM570.948 199.373v129.843c24.166 29.696 38.912 70.451 46.285 100.147 1.843 11.059-5.53 22.323-18.432 22.323h-183.501c-11.059 0-20.48-11.059-18.432-22.323 5.53-29.696 22.323-70.451 46.285-100.147v-129.638c-40.755 24.166-68.608 68.608-66.765 118.579l9.421 320.307c1.843 24.166 20.48 42.598 42.598 42.598h14.746l20.48-140.902c3.686-24.166 22.323-40.755 46.285-40.755s42.598 16.589 46.285 40.755l20.48 140.902c35.226 0 49.971-18.432 51.814-40.755l9.216-320.512c1.843-51.814-26.010-98.099-66.765-120.422v0z" />
<glyph unicode="&#xe90e;" glyph-name="Security" d="M568.73 249.958c-12.698 0-25.395 3.277-36.659 9.83l-151.757 87.654 42.598 73.933 143.155-82.739c0.205 0.205 0.205 0.205 0.41 0.41l215.245 204.595-546.202 315.392-142.746-246.989 58.778-33.997c20.48-11.878 27.443-37.888 15.565-58.368s-37.888-27.443-58.368-15.565l-68.813 39.731c-35.226 20.275-47.309 65.536-27.034 100.762l154.419 267.264c20.275 35.226 65.536 47.309 100.762 27.034l570.982-329.523c35.226-20.275 47.309-65.536 27.034-100.762-2.048-3.482-4.506-6.758-7.578-9.626l-229.786-218.317c-9.83-13.722-24.166-23.757-40.755-28.058-6.349-1.843-12.698-2.662-19.251-2.662zM870.81 372.429c-4.301 0-8.806 1.024-12.698 3.482l-109.568 63.283c-12.288 7.168-16.384 22.733-9.421 35.021 7.168 12.288 22.733 16.384 35.021 9.421l109.568-63.283c12.288-7.168 16.384-22.733 9.421-35.021-4.915-8.192-13.517-12.902-22.323-12.902zM803.226 260.198c-4.301 0-8.806 1.024-12.698 3.482l-144.179 83.149c-12.288 7.168-16.384 22.733-9.421 35.021 7.168 12.288 22.733 16.384 35.021 9.421l144.179-83.149c12.288-7.168 16.384-22.733 9.421-35.021-4.71-8.397-13.312-12.902-22.323-12.902zM860.365 133.632c-4.506 0-8.806 1.229-12.902 3.482l-85.402 49.357c-12.288 7.168-16.384 22.733-9.421 35.021l135.373 234.496c3.482 5.939 9.011 10.24 15.565 11.878 6.554 1.843 13.517 0.819 19.456-2.458l85.402-49.357c12.288-7.168 16.384-22.733 9.421-35.021l-135.373-234.496c-3.482-5.939-9.011-10.24-15.565-11.878-2.048-0.614-4.301-1.024-6.554-1.024zM809.779 218.010l41.165-23.757 109.773 190.259-41.165 23.757-109.773-190.259zM254.771 99.84h-169.984c-23.552 0-42.598 19.046-42.598 42.598s19.046 42.598 42.598 42.598h127.386v144.179c0 23.552 19.046 42.598 42.598 42.598s42.598-19.046 42.598-42.598v-186.778c0-23.552-19.046-42.598-42.598-42.598zM287.334 286.618c-98.099 0-177.971 79.872-177.971 177.971s79.872 177.971 177.971 177.971c98.099 0 177.971-79.872 177.971-177.971s-79.872-177.971-177.971-177.971zM287.334 557.363c-51.2 0-92.774-41.574-92.774-92.774s41.574-92.774 92.774-92.774 92.774 41.574 92.774 92.774-41.779 92.774-92.774 92.774zM61.645-53.146c-14.131 0-25.6 11.469-25.6 25.6v321.126c0 14.131 11.469 25.6 25.6 25.6s25.6-11.469 25.6-25.6v-321.126c0-14.131-11.469-25.6-25.6-25.6z" />
<glyph unicode="&#xe90f;" glyph-name="Services" d="M845.824-36.966h-665.6c-23.552 0-42.598 19.046-42.598 42.598v886.784c0 23.552 19.046 42.598 42.598 42.598h665.6c23.552 0 42.598-19.046 42.598-42.598v-886.784c0-23.552-19.046-42.598-42.598-42.598zM222.822 48.23h580.198v801.587h-580.198v-801.587zM357.376 612.045c-6.963 0-13.926 2.458-19.661 7.373l-71.885 62.669c-12.493 10.854-13.722 29.696-2.867 42.189s29.696 13.722 42.189 2.867l50.176-43.827 83.763 88.883c11.264 12.083 30.31 12.493 42.189 1.229 12.083-11.264 12.493-30.31 1.229-42.189l-103.424-109.773c-5.734-6.144-13.722-9.421-21.709-9.421zM729.088 663.859h-192.512c-16.589 0-29.901 13.312-29.901 29.901s13.312 29.901 29.901 29.901h192.512c16.589 0 29.901-13.312 29.901-29.901s-13.312-29.901-29.901-29.901zM357.376 374.477c-6.963 0-13.926 2.458-19.661 7.373l-71.885 62.669c-12.493 10.854-13.722 29.696-2.867 42.189s29.696 13.722 42.189 2.867l50.176-43.827 83.763 88.883c11.264 12.083 30.31 12.493 42.189 1.229 12.083-11.264 12.493-30.31 1.229-42.189l-103.424-109.773c-5.734-6.144-13.722-9.421-21.709-9.421zM729.088 426.291h-192.512c-16.589 0-29.901 13.312-29.901 29.901s13.312 29.901 29.901 29.901h192.512c16.589 0 29.901-13.312 29.901-29.901s-13.312-29.901-29.901-29.901zM357.376 124.621c-6.963 0-13.926 2.458-19.661 7.373l-71.885 62.669c-12.493 10.854-13.722 29.696-2.867 42.189s29.696 13.722 42.189 2.867l50.176-43.827 83.763 88.883c11.264 12.083 30.31 12.493 42.189 1.229 12.083-11.264 12.493-30.31 1.229-42.189l-103.424-109.773c-5.734-6.144-13.722-9.421-21.709-9.421zM729.088 176.435h-192.512c-16.589 0-29.901 13.312-29.901 29.901s13.312 29.901 29.901 29.901h192.512c16.589 0 29.901-13.312 29.901-29.901s-13.312-29.901-29.901-29.901z" />
<glyph unicode="&#xe910;" glyph-name="Shopping" d="M517.12 143.872c-124.109 0-240.435 8.192-327.27 22.938-48.947 8.397-87.859 18.842-115.712 30.925-43.418 19.251-65.536 45.466-65.536 78.234 0 40.755 24.781 80.896 73.523 119.194 32.973 26.010 78.234 52.429 134.349 78.438 93.389 43.418 184.934 71.27 188.826 72.499 22.528 6.758 46.285-5.939 53.248-28.467 6.758-22.528-5.939-46.285-28.467-53.248v0c-0.819-0.205-90.522-27.648-178.381-68.608-124.314-57.754-150.733-97.485-156.467-113.050 10.854-6.963 44.851-23.142 137.83-36.25 78.643-11.264 179.405-17.203 284.058-17.203 1.229 0 2.458 0 3.686 0 103.424 0.205 202.752 6.349 279.347 17.408 90.112 13.107 122.47 28.877 132.71 35.635-8.397 27.853-65.331 75.366-205.005 128.205-113.254 42.803-228.352 69.427-229.581 69.632-18.432 4.301-31.949 20.070-32.973 39.117l-2.048 34.816c-0.41 8.397 1.434 16.794 5.939 24.166 18.842 31.949 36.864 69.222 39.117 80.896 0 1.024-0.205 1.843-0.205 2.048-2.662 2.253-12.083 4.301-15.77 4.096-2.458 0-3.072-0.205-5.325 0.205-3.482 0.205-10.65-0.614-14.336-4.096s-5.939-11.878-5.939-23.347c0-23.552-19.251-42.598-42.598-42.598 0 0 0 0-0.205 0-23.552 0-42.598 19.251-42.598 42.803 0.205 46.49 19.046 73.114 34.816 87.040 29.286 25.805 65.536 25.805 77.21 25.19 11.878-0.205 48.947-2.867 75.571-29.491 16.794-16.998 25.395-39.526 24.781-65.331 0-0.41 0-0.614 0-1.024-1.229-26.010-22.118-68.813-39.731-100.557 44.442-11.469 123.494-33.587 203.571-63.693 71.066-26.829 128.205-54.682 169.984-82.739 61.030-41.165 91.955-85.811 91.955-132.506 0-32.768-21.709-58.778-64.717-77.824-27.443-12.083-65.741-22.528-114.074-30.72-85.606-14.541-200.499-22.733-323.584-22.733zM508.314 659.968v0 0 0zM486.4 665.702v0c0 0 0 0 0 0z" />
<glyph unicode="&#xe911;" glyph-name="Soutien-Scolaire" d="M267.264 452.096c-55.91 0-101.376 45.466-101.376 101.376s45.466 101.376 101.376 101.376 101.376-45.466 101.376-101.376-45.466-101.376-101.376-101.376zM267.264 613.888c-33.382 0-60.416-27.034-60.416-60.416s27.034-60.416 60.416-60.416 60.416 27.034 60.416 60.416-27.034 60.416-60.416 60.416zM393.626 4.813h-247.194c-11.264 0-20.48 9.216-20.48 20.48v166.912l-9.626-21.709c-3.277-7.373-10.65-12.288-18.842-12.288h-65.536c-6.349 0-12.493 3.072-16.384 8.192s-5.12 11.674-3.277 18.022l75.776 267.264c1.638 5.939 5.939 10.854 11.674 13.312l54.272 22.938c9.421 4.096 20.48 0.41 25.805-8.602 1.229-2.048 28.672-47.104 90.522-46.285s91.955 61.030 93.184 63.488c2.662 5.325 7.578 9.421 13.312 10.854s11.878 0.41 16.794-3.072l49.971-35.021 168.755 74.957c6.349 2.867 13.722 2.253 19.456-1.638 5.734-3.686 9.216-10.24 9.216-17.203v-64.512c0-6.758-3.277-12.902-8.806-16.794l-147.456-102.195-70.861-61.85v-254.976c0.205-11.059-9.011-20.275-20.275-20.275zM166.912 45.773h206.234v243.917c0 5.939 2.662 11.469 6.963 15.36l78.848 68.608c0.614 0.41 1.229 1.024 1.843 1.434l139.469 96.666v22.323l-150.528-66.765c-6.554-2.867-14.131-2.253-20.070 1.843l-41.779 29.286c-18.022-25.395-56.115-65.536-117.146-66.355-61.645-0.819-98.918 31.744-115.712 51.814l-30.515-12.902-65.536-231.629h25.19l43.418 98.714c3.891 8.806 13.517 13.722 22.938 11.878 9.421-2.048 16.179-10.445 16.179-20.070v-244.122zM620.749 469.914c-5.325 0-10.854 2.048-14.746 6.349-7.782 8.192-7.578 21.094 0.614 28.877l124.723 118.989c8.192 7.782 21.094 7.578 28.877-0.614s7.578-21.094-0.614-28.877l-124.723-119.194c-3.891-3.686-9.011-5.53-14.131-5.53zM922.829 803.738h-424.55c-11.264 0-20.48 9.216-20.48 20.48s9.216 20.48 20.48 20.48h424.346c11.264 0 20.48-9.216 20.48-20.48s-9.011-20.48-20.275-20.48zM922.829 732.058h-580.813c-11.264 0-20.48 9.216-20.48 20.48s9.216 20.48 20.48 20.48h580.813c11.264 0 20.48-9.216 20.48-20.48s-9.216-20.48-20.48-20.48zM922.829 660.378h-290.406c-11.264 0-20.48 9.216-20.48 20.48s9.216 20.48 20.48 20.48h290.406c11.264 0 20.48-9.216 20.48-20.48s-9.216-20.48-20.48-20.48z" />
<glyph unicode="&#xe912;" glyph-name="Summary" d="M620.048 683.418h-433.766c-22.528 0-40.96 18.432-40.96 40.96s18.432 40.96 40.96 40.96h433.766c22.528 0 40.96-18.432 40.96-40.96s-18.227-40.96-40.96-40.96zM620.048 314.778h-433.766c-22.528 0-40.96 18.432-40.96 40.96s18.432 40.96 40.96 40.96h433.766c22.528 0 40.96-18.432 40.96-40.96s-18.227-40.96-40.96-40.96zM837.751 499.098h-651.469c-22.528 0-40.96 18.432-40.96 40.96s18.432 40.96 40.96 40.96h651.469c22.528 0 40.96-18.432 40.96-40.96s-18.227-40.96-40.96-40.96zM837.751 130.458h-651.469c-22.528 0-40.96 18.432-40.96 40.96s18.432 40.96 40.96 40.96h651.469c22.528 0 40.96-18.432 40.96-40.96s-18.227-40.96-40.96-40.96z" />
<glyph unicode="&#xe913;" glyph-name="Superieur" d="M936.755 354.202v0h-259.686l13.722 29.286c12.083 26.010 18.637 54.682 18.432 83.354 0 29.491-6.758 58.982-19.456 85.606l-14.336 29.491h261.12c32.563 0 59.187-26.624 59.187-59.187v-109.568c0-15.77-6.144-30.72-17.408-41.779s-25.6-17.203-41.574-17.203zM739.328 395.162h197.632c4.915 0 9.421 1.843 12.902 5.325s5.325 7.987 5.325 12.902v109.158c0 10.035-8.192 18.227-18.227 18.227h-198.246c7.782-23.757 11.878-48.947 11.674-73.933 0-24.371-3.891-48.538-11.059-71.68zM315.802 354.202h-218.317c-15.77 0-30.72 6.144-41.779 17.408-11.264 11.264-17.408 26.010-17.408 41.779v109.158c0 15.77 6.144 30.72 17.408 41.779 11.264 11.264 26.010 17.408 41.779 17.408h252.109l-14.336-29.491c-12.902-26.419-19.661-56.115-19.456-85.402 0-28.672 6.349-57.549 18.432-83.558l-16.384-7.782-2.048-21.299zM97.485 540.57c-4.915 0-9.421-1.843-12.902-5.325s-5.325-7.987-5.325-12.902v-109.158c0-4.915 1.843-9.421 5.325-12.902s7.987-5.325 12.902-5.325h188.416c-7.373 23.142-11.059 47.514-11.059 71.68 0 24.986 3.891 49.971 11.674 73.933h-189.030zM512.614 301.773c-92.16 0-167.117 74.957-167.117 167.117s74.957 167.117 167.117 167.117c92.16 0 167.117-74.957 167.117-167.117s-74.957-167.117-167.117-167.117zM512.614 595.251c-69.632 0-126.157-56.73-126.157-126.157 0-69.632 56.73-126.157 126.157-126.157 69.632 0 126.157 56.73 126.157 126.157 0 69.632-56.525 126.157-126.157 126.157zM421.274 106.189c-4.301 0-8.397 1.229-12.083 3.891-6.758 4.915-9.83 13.517-7.782 21.709l51.61 200.090c1.434 5.325 4.71 9.83 9.421 12.493s10.24 3.482 15.565 2.253c12.902-3.277 26.214-5.12 39.526-5.12 21.709 0 48.128 5.325 48.333 5.325 5.325 1.024 10.854 0 15.36-3.072s7.782-7.782 8.806-13.107l39.117-200.090c1.638-8.192-1.843-16.384-8.806-20.89s-15.77-4.506-22.733 0l-80.486 53.453-84.992-53.658c-3.277-2.253-7.168-3.277-10.854-3.277zM517.325 207.974c3.891 0 7.987-1.229 11.264-3.482l50.79-33.792-26.010 132.506c-10.445-1.434-23.757-2.867-36.25-2.867-9.83 0-19.866 0.819-29.491 2.253l-33.792-131.072 52.429 33.178c3.482 2.253 7.168 3.277 11.059 3.277z" />
<glyph unicode="&#xe914;" glyph-name="Train" d="M837.837 463.77l-28.058 220.979c-7.578 56.115-50.586 99.328-106.701 104.858l-97.485 9.421 3.686 60.006h91.75c11.264 0 18.637 7.578 18.637 18.637s-7.373 18.842-18.637 18.842h-384c-11.264 0-18.637-7.578-18.637-18.637s7.578-18.637 18.637-18.637h91.75l3.686-60.006-97.485-9.421c-56.115-5.53-99.328-48.742-106.701-104.858l-26.010-221.184v-258.458c-0.41-53.453 42.598-97.075 96.051-97.485 0.41 0 0.819 0 1.434 0l-54.477-80.282c-5.53-9.421-3.686-20.685 5.53-26.214s20.685-3.686 26.214 5.53l69.427 101.171h370.893l69.222-101.171c5.53-9.421 16.794-11.264 26.214-5.53s11.264 16.794 5.53 26.214l-54.067 80.486c52.429 0 97.485 44.851 97.485 97.485-3.891 5.53-2.048 250.88-3.891 258.253zM448.307 859.034h125.542l-3.686-56.115-50.79 5.53h-13.107l-54.272-5.53-3.686 56.115zM247.808 679.219c5.53 37.478 35.635 67.379 73.114 71.27 1.843 0 187.392 18.637 189.235 18.637s187.392-18.637 189.235-18.637c37.478-3.686 69.222-33.792 73.114-71.27l26.214-202.342h-577.126l26.214 202.342zM740.352 143.667h-460.8c-32.768-0.41-59.597 25.805-60.006 58.368 0 0.614 0 1.024 0 1.638v235.93h582.451v-235.93c-1.638-31.949-27.853-60.006-61.645-60.006v0zM667.443 402.125c-34.202 0-61.85-27.648-61.85-61.85s27.648-61.85 61.85-61.85c34.202 0 61.85 27.648 61.85 61.85 1.843 33.587-26.419 61.85-61.85 61.85zM667.443 314.061c-13.517 0-24.371 10.854-24.371 24.371s10.854 24.371 24.371 24.371c13.517 0 24.371-10.854 24.371-24.371 0.41-13.107-9.83-23.962-22.938-24.371-0.41 0-1.024 0-1.434 0zM691.814 197.939h-48.742c-11.264 0-18.637-7.578-18.637-18.637s7.578-18.637 18.637-18.637h48.742c11.264 0 18.637 7.578 18.637 18.637s-7.578 18.637-18.637 18.637zM352.666 402.125c-34.202 0-61.85-27.648-61.85-61.85s27.648-61.85 61.85-61.85 61.85 27.648 61.85 61.85-27.648 61.85-61.85 61.85zM352.666 314.061c-13.517 0-24.371 10.854-24.371 24.371s10.854 24.371 24.371 24.371c13.517 0 24.371-10.854 24.371-24.371s-10.854-24.371-24.371-24.371zM377.037 197.939h-48.742c-11.264 0-18.637-7.578-18.637-18.637s7.578-18.637 18.637-18.637h48.742c11.264 0 18.637 7.578 18.637 18.637s-7.373 18.637-18.637 18.637z" />
<glyph unicode="&#xe915;" glyph-name="TrainIDF" d="M513.876-0.956c-119.398 0-231.629 46.49-316.211 130.867-84.378 84.378-130.867 196.813-130.867 316.211s46.49 231.629 130.867 316.211c84.582 84.378 196.813 130.867 316.211 130.867s231.629-46.49 316.211-130.867c84.378-84.378 130.867-196.813 130.867-316.211s-46.49-231.629-130.867-316.211-196.813-130.867-316.211-130.867zM513.876 821.52c-207.053 0-375.398-168.346-375.398-375.398s168.346-375.398 375.398-375.398c207.053 0 375.398 168.346 375.398 375.398s-168.346 375.398-375.398 375.398zM428.614 335.391h-40.141c-7.578 0-12.902 2.867-16.384 8.602l-40.96 66.15c-1.638 2.662-3.482 4.506-5.53 5.734s-5.12 1.843-9.011 1.843h-15.155v-82.125h-44.646v215.45h67.789c14.95 0 27.853-1.638 38.707-4.71 10.65-3.072 19.456-7.373 26.214-12.902s11.878-12.083 14.95-19.866c3.072-7.578 4.71-16.179 4.71-25.395 0-7.168-1.024-13.926-3.072-20.275s-4.915-12.288-8.806-17.408c-3.891-5.325-8.602-9.83-14.336-13.926s-12.083-7.373-19.251-9.83c2.867-1.638 5.53-3.482 7.987-5.734s4.71-4.915 6.758-7.987l50.176-77.619zM324.166 448.85c7.168 0 13.517 0.819 18.637 2.662 5.325 1.843 9.626 4.301 12.902 7.578s5.939 6.963 7.373 11.264c1.638 4.301 2.458 9.011 2.458 14.336 0 10.24-3.482 18.022-10.24 23.757s-17.203 8.397-30.925 8.397h-22.938v-68.198h22.733zM494.559 515.82v-55.296h71.885v-33.792h-71.885v-56.525h92.365v-34.816h-137.216v215.45h137.216v-34.816h-92.365zM791.929 335.391h-40.141c-7.578 0-12.902 2.867-16.384 8.602l-40.96 66.15c-1.638 2.662-3.482 4.506-5.53 5.734s-5.12 1.843-9.011 1.843h-15.155v-82.125h-44.646v215.45h67.789c14.95 0 27.853-1.638 38.502-4.71s19.456-7.373 26.214-12.902c6.758-5.53 11.878-12.083 14.95-19.866 3.072-7.578 4.71-16.179 4.71-25.395 0-7.168-1.024-13.926-3.072-20.275s-4.915-12.288-8.806-17.408c-3.891-5.325-8.602-9.83-14.336-13.926s-12.083-7.373-19.251-9.83c2.867-1.638 5.53-3.482 7.987-5.734s4.71-4.915 6.758-7.987l50.381-77.619zM687.481 448.85c7.168 0 13.517 0.819 18.637 2.662 5.325 1.843 9.626 4.301 12.902 7.578s5.939 6.963 7.373 11.264c1.638 4.301 2.458 9.011 2.458 14.336 0 10.24-3.482 18.022-10.24 23.757s-17.203 8.397-30.925 8.397h-23.142v-68.198h22.938z" />
<glyph unicode="&#xe916;" glyph-name="Tramway" d="M739.738 776.178h-140.698l67.584 91.955c5.53 7.578 3.686 20.685-3.686 26.214s-18.842 3.686-26.214-3.686l-84.378-114.483h-80.691l-84.787 114.483c-5.734 7.578-16.589 9.216-24.371 3.686-7.578-5.53-9.421-18.842-3.686-26.214l67.584-91.955h-140.902c-44.237 0.205-80.282-35.226-80.691-79.462 0-0.41 0-0.819 0-1.229v-555.622c0-11.264 7.578-18.842 18.842-18.842h103.219l-93.798-90.112c-7.168-6.963-7.578-18.432-0.614-25.6 0.205-0.205 0.41-0.41 0.614-0.614 6.963-7.168 18.432-7.578 25.6-0.614 0.205 0.205 0.41 0.41 0.614 0.614l122.061 118.17h262.758l122.061-118.17c7.168-7.168 19.046-7.168 26.214 0s7.168 19.046 0 26.214l-93.798 90.112h103.219c11.264 0 18.842 7.578 18.842 18.842v555.622c-0.205 43.008-35.84 80.691-80.896 80.691zM242.278 595.954h540.467v-178.381h-540.467v178.381zM285.491 738.494h454.246c23.552 0.41 42.803-18.227 43.213-41.779 0-0.41 0-1.024 0-1.434v-60.006h-540.672v60.211c0.41 23.757 19.456 42.803 43.213 43.008zM242.278 158.706v223.232h540.467v-223.232h-540.467zM673.997 335.038c-42.394-0.205-76.8-34.611-77.005-77.005-0.41-41.984 33.178-76.39 75.162-77.005 0.614 0 1.024 0 1.638 0 42.394 0.205 76.8 34.611 77.005 77.005 0.41 41.984-33.178 76.39-75.162 77.005-0.614 0-1.024 0-1.638 0zM673.997 220.555c-21.709 0-39.322 17.613-39.322 39.322s17.613 39.322 39.322 39.322c21.299 0.614 38.912-16.384 39.322-37.478 0-0.614 0-1.229 0-1.843 0.614-21.299-16.179-38.912-37.478-39.322-0.614 0-1.229 0-1.843 0zM351.232 335.038c-42.394-0.205-76.8-34.611-77.005-77.005-0.41-41.984 33.178-76.39 75.162-77.005 0.614 0 1.024 0 1.638 0 42.394 0 77.005 34.406 77.005 77.005s-34.406 77.005-76.8 77.005c0 0 0 0 0 0zM351.232 220.555c-21.709 0-39.322 17.613-39.322 39.322s17.613 39.322 39.322 39.322c21.299 0.614 38.912-16.384 39.322-37.478 0-0.614 0-1.229 0-1.843-1.843-22.323-18.637-39.322-39.322-39.322zM730.986 874.082h-436.838c-13.517 0-24.576 11.059-24.576 24.576s11.059 24.576 24.576 24.576h436.838c13.517 0 24.576-11.059 24.576-24.576s-11.059-24.576-24.576-24.576z" />
<glyph unicode="&#xe917;" glyph-name="TramwayIDF" d="M514.662-1.741c-119.398 0-231.629 46.49-316.211 130.867s-130.867 196.813-130.867 316.211 46.49 231.629 130.867 316.211 196.813 130.867 316.211 130.867 231.629-46.49 316.211-130.867 130.867-196.813 130.867-316.211-46.49-231.629-130.867-316.211-196.813-130.867-316.211-130.867zM514.662 820.736c-207.053 0-375.398-168.346-375.398-375.398s168.346-375.398 375.398-375.398c207.053 0 375.398 168.346 375.398 375.398s-168.346 375.398-375.398 375.398zM641.196 543.877h-94.618v-269.926h-67.174v269.926h-94.618v54.067h256.41v-54.067z" />
<glyph unicode="&#xe918;" glyph-name="Transport" d="M741.376 96.154h-458.752c-67.584 0-122.47 54.886-122.47 122.47 0 1.434 0 2.867 0.205 4.301l63.283 614.4c1.229 66.355 55.706 120.218 122.47 120.218h333.824c66.765 0 121.242-53.658 122.47-120.218l61.235-614.605c0.205-1.434 0.205-2.867 0.205-4.301 0-67.379-54.886-122.266-122.47-122.266zM245.555 216.781c1.024-19.661 17.203-35.43 37.069-35.43h458.752c19.866 0 36.25 15.77 37.069 35.43l-61.030 613.99c-0.205 1.434-0.205 2.867-0.205 4.301 0 20.48-16.794 37.274-37.274 37.274h-333.824c-20.48 0-37.274-16.589-37.274-37.274 0-1.434 0-2.867-0.205-4.301l-63.078-613.99zM266.24 835.072v0 0zM386.253 297.472c0-23.187-19.072-41.984-42.598-41.984s-42.598 18.797-42.598 41.984c0 23.187 19.072 41.984 42.598 41.984s42.598-18.797 42.598-41.984zM708.608 297.472c0-23.187-19.072-41.984-42.598-41.984s-42.598 18.797-42.598 41.984c0 23.187 19.072 41.984 42.598 41.984s42.598-18.797 42.598-41.984zM616.448 774.656h-208.896c-14.131 0-25.6 11.469-25.6 25.6s11.469 25.6 25.6 25.6h208.896c14.131 0 25.6-11.469 25.6-25.6s-11.469-25.6-25.6-25.6zM183.91-64.614c-12.902 0-25.805 5.939-34.202 17.203-14.131 18.842-10.24 45.67 8.602 59.802l215.654 161.382c18.842 14.131 45.67 10.24 59.802-8.602s10.24-45.67-8.602-59.802l-215.654-161.382c-7.782-5.734-16.589-8.602-25.6-8.602zM827.392-65.638c-9.011 0-17.818 2.867-25.6 8.602l-204.8 153.6c-18.842 14.131-22.733 40.96-8.602 59.802s40.96 22.733 59.802 8.602l204.8-153.6c18.842-14.131 22.733-40.96 8.602-59.802-8.397-11.469-21.299-17.203-34.202-17.203zM757.76-26.726h-518.144c-23.552 0-42.598 19.046-42.598 42.598s19.046 42.598 42.598 42.598h518.144c23.552 0 42.598-19.046 42.598-42.598s-19.046-42.598-42.598-42.598z" />
<glyph unicode="&#xe919;" glyph-name="Trotinette" d="M162.499 82.93c-52.224 0-94.413 42.189-94.413 94.413s42.189 94.413 94.413 94.413 94.413-42.189 94.413-94.413v0c0-52.224-42.189-94.413-94.413-94.413zM162.499 234.072c-31.334 0-56.73-25.395-56.73-56.73s25.395-56.73 56.73-56.73 56.73 25.395 56.73 56.73c0 31.334-25.395 56.525-56.73 56.73zM861.428 82.93c-52.224 0-94.413 42.189-94.413 94.413s42.189 94.413 94.413 94.413 94.413-42.189 94.413-94.413v0c0-52.224-42.189-94.413-94.413-94.413zM861.428 234.072c-31.334 0-56.73-25.395-56.73-56.73s25.395-56.73 56.73-56.73 56.73 25.395 56.73 56.73c0 31.334-25.395 56.525-56.73 56.73zM690.618 158.446h-414.72v18.842c0 88.883-32.563 113.254-151.142 113.254v37.683c94.822 0 180.429-10.445 188.211-132.301h360.243l169.165 195.994v327.475c0 56.934-51.814 52.838-56.73 53.043v37.683h16.998c0 0 79.258-9.216 77.414-92.979v-339.149l-189.44-219.546zM842.574 403.984h37.683v-245.555h-37.683v245.555zM153.090 196.196h151.142v-37.683h-151.142v37.683z" />
<glyph unicode="&#xe91a;" glyph-name="Ville" d="M978.534 286.208h-900.506c-11.264 0-20.48 9.216-20.48 20.48s9.216 20.48 20.48 20.48h900.506c11.264 0 20.48-9.216 20.48-20.48s-9.216-20.48-20.48-20.48zM130.253 286.208c-11.264 0-20.48 9.216-20.48 20.48v228.557c0 11.264 9.216 20.48 20.48 20.48h147.251c11.264 0 20.48-9.216 20.48-20.48s-9.216-20.48-20.48-20.48h-126.771v-208.077c0-11.264-9.216-20.48-20.48-20.48zM411.034 292.557c-11.264 0-20.48 9.216-20.48 20.48v62.259h-8.602c-11.264 0-20.48 9.216-20.48 20.48v178.995h-61.645v-178.995c0-11.264-9.216-20.48-20.48-20.48h-3.686v-62.259c0-11.264-9.216-20.48-20.48-20.48s-20.48 9.216-20.48 20.48v82.739c0 11.264 9.216 20.48 20.48 20.48h3.686v178.995c0 11.264 9.216 20.48 20.48 20.48h102.605c11.264 0 20.48-9.216 20.48-20.48v-178.995h8.602c11.264 0 20.48-9.216 20.48-20.48v-82.739c0-11.264-9.216-20.48-20.48-20.48zM578.355 286.208c-11.264 0-20.48 9.216-20.48 20.48v291.635c0 0.614 0 1.434 0.205 2.048 0 0.41 4.301 48.333-24.166 79.462-17.613 19.251-45.056 28.877-81.306 28.467-36.454-0.205-63.693-10.24-80.486-29.696-26.829-30.925-20.89-77.21-20.89-77.619 1.434-11.264-6.349-21.504-17.408-23.142s-21.504 6.144-23.142 17.408c-0.41 2.662-8.602 64.717 30.31 109.773 24.781 28.877 62.259 43.827 111.411 44.032 0.614 0 1.229 0 2.048 0 47.718 0 84.787-14.131 110.182-42.189 38.298-42.189 35.43-100.352 34.611-109.773v-290.406c-0.41-11.264-9.626-20.48-20.89-20.48zM767.386 287.846c-11.264 0-20.48 9.216-20.48 20.48v249.446l-184.525 87.040c-10.24 4.915-14.541 16.998-9.83 27.238 4.915 10.24 16.998 14.541 27.238 9.83l196.403-92.57c7.168-3.482 11.674-10.65 11.674-18.432v-262.349c0-11.469-9.216-20.685-20.48-20.685zM924.467 286.208c-11.264 0-20.48 9.216-20.48 20.48v158.72l-135.578-0.205c0 0 0 0 0 0-11.264 0-20.48 9.216-20.48 20.48s9.216 20.48 20.48 20.48l156.058 0.205c0 0 0 0 0 0 5.325 0 10.65-2.253 14.541-5.939 3.891-3.891 5.939-9.011 5.939-14.541v-179.2c0-11.264-9.216-20.48-20.48-20.48z" />
<glyph unicode="&#xe91b;" glyph-name="WiredNetwork" d="M847.258 407.040h-674.202c-22.528 0-40.96 18.432-40.96 40.96s18.432 40.96 40.96 40.96h674.202c22.528 0 40.96-18.432 40.96-40.96s-18.432-40.96-40.96-40.96zM511.59 407.040c-22.528 0-40.96 18.432-40.96 40.96v104.653c0 22.528 18.432 40.96 40.96 40.96s40.96-18.432 40.96-40.96v-104.653c0-22.528-18.227-40.96-40.96-40.96zM260.506 302.387c-22.528 0-40.96 18.432-40.96 40.96v104.653c0 22.528 18.432 40.96 40.96 40.96s40.96-18.432 40.96-40.96v-104.653c0-22.528-18.432-40.96-40.96-40.96zM762.675 302.387c-22.528 0-40.96 18.432-40.96 40.96v104.653c0 22.528 18.432 40.96 40.96 40.96s40.96-18.432 40.96-40.96v-104.653c0-22.528-18.227-40.96-40.96-40.96zM511.59 534.221c-49.766 0-90.317 40.55-90.317 90.317s40.55 90.317 90.317 90.317 90.317-40.55 90.317-90.317-40.55-90.317-90.317-90.317zM511.59 653.414c-15.974 0-28.877-12.902-28.877-28.877s12.902-28.877 28.877-28.877c15.974 0 28.877 12.902 28.877 28.877s-12.902 28.877-28.877 28.877zM260.506 179.098c-49.766 0-90.317 40.55-90.317 90.317s40.55 90.317 90.317 90.317 90.317-40.55 90.317-90.317-40.55-90.317-90.317-90.317zM260.506 298.291c-15.974 0-28.877-12.902-28.877-28.877s12.902-28.877 28.877-28.877 28.877 12.902 28.877 28.877-12.902 28.877-28.877 28.877zM762.675 179.098c-49.766 0-90.317 40.55-90.317 90.317s40.55 90.317 90.317 90.317 90.317-40.55 90.317-90.317-40.55-90.317-90.317-90.317zM762.675 298.291c-15.974 0-28.877-12.902-28.877-28.877s12.902-28.877 28.877-28.877 28.877 12.902 28.877 28.877-12.902 28.877-28.877 28.877z" />
<glyph unicode="&#xe91c;" glyph-name="Airplane" d="M938.332 474.829l-320.922 161.178c-3.686 182.477-38.298 270.746-103.629 270.746-67.174 0-99.942-88.269-103.629-272.589l-320.717-159.334c-5.734-3.891-11.469-9.626-11.469-17.203v-96.051c0-13.517 13.517-22.938 24.986-17.203l310.886 101.581c5.734-94.003 13.517-188.211 24.986-265.011l-142.131-70.861c-5.734-3.891-11.469-9.626-11.469-17.203v-47.923c0-13.517 13.517-22.938 24.986-17.203l147.866 49.971c15.36-65.331 30.72-90.317 55.706-90.317 23.142 0 40.346 24.986 55.706 90.317l147.866-49.971c11.469-3.891 24.986 5.734 24.986 17.203v47.923c0 7.578-3.891 13.517-11.469 17.203l-143.974 71.066c12.902 87.859 21.299 176.333 24.986 265.011l311.091-103.629c11.469-3.891 24.986 5.734 24.986 17.203v96.051c1.843 9.421-3.891 15.155-9.626 19.046zM116.265 445.952l291.84 145.818c0-32.563 1.843-69.018 1.843-105.677l-293.888-97.894v57.754zM323.727 81.203l121.037 61.44 5.734-28.877-126.771-42.189v9.626zM513.782 29.389c-49.971 96.051-121.037 838.861 0 838.861 119.194 0.205 49.971-740.966 0-838.861v0zM703.836 71.578l-126.771 42.189 5.734 28.877 121.037-61.44v-9.626zM911.299 388.403l-295.731 99.942c1.843 36.454 1.843 72.909 1.843 105.677l293.888-148.070v-57.549z" />
<glyph unicode="&#xe91d;" glyph-name="ArrowDown" d="M512 244.224c-10.445 0-20.89 3.891-28.877 11.878l-326.656 325.632c-15.974 15.974-15.974 41.984 0 57.958s41.984 15.974 57.958 0l297.574-296.755 297.779 296.755c15.974 15.974 41.984 15.974 57.958 0s15.974-41.984 0-57.958l-326.656-325.632c-8.192-7.987-18.637-11.878-29.082-11.878z" />
<glyph unicode="&#xe91e;" glyph-name="ArrowLeft" d="M674.816 80.384c-10.445 0-21.094 4.096-29.082 12.083l-325.632 326.656c-15.974 15.974-15.974 41.779 0 57.754l325.632 326.656c15.974 15.974 41.984 15.974 57.958 0s15.974-41.984 0-57.958l-296.755-297.574 296.755-297.779c15.974-15.974 15.974-41.984 0-57.958-7.987-7.987-18.432-11.878-28.877-11.878z" />
<glyph unicode="&#xe91f;" glyph-name="ArrowRight" d="M349.184 80.384c-10.445 0-20.89 3.891-28.877 11.878-15.974 15.974-15.974 41.984 0 57.958l296.755 297.779-296.96 297.779c-15.974 15.974-15.974 41.984 0 57.958s41.984 15.974 57.958 0l325.632-326.656c15.974-15.974 15.974-41.779 0-57.754l-325.632-326.656c-7.782-8.192-18.432-12.288-28.877-12.288z" />
<glyph unicode="&#xe920;" glyph-name="ArrowUp" d="M838.656 244.224c-10.445 0-20.89 3.891-28.877 11.878l-297.779 296.96-297.779-296.96c-15.974-15.974-41.984-15.974-57.958 0s-15.974 41.984 0 57.958l326.656 325.632c15.974 15.974 41.779 15.974 57.754 0l326.656-325.632c15.974-15.974 15.974-41.984 0-57.958-7.578-7.782-18.227-11.878-28.672-11.878z" />
<glyph unicode="&#xe921;" glyph-name="Bibliothque" d="M370.688 73.216h-210.944c-11.264 0-20.48 9.216-20.48 20.48v706.56c0 11.264 9.216 20.48 20.48 20.48h210.944c11.264 0 20.48-9.216 20.48-20.48v-706.56c0-11.264-9.216-20.48-20.48-20.48zM180.224 114.176h169.984v665.6h-169.984v-665.6zM583.68 73.216h-155.648c-11.264 0-20.48 9.216-20.48 20.48v546.816c0 11.264 9.216 20.48 20.48 20.48h155.648c11.264 0 20.48-9.216 20.48-20.48v-546.816c0-11.264-9.216-20.48-20.48-20.48zM448.512 114.176h114.688v505.856h-114.688v-505.856zM764.928 72.397c-2.867 0-5.939 0.614-8.602 1.843-4.915 2.253-8.806 6.554-10.65 11.469l-142.131 390.758c-3.891 10.65 1.638 22.323 12.288 26.214l175.104 63.693c5.12 1.843 10.65 1.638 15.565-0.614s8.806-6.554 10.65-11.469l142.131-390.758c3.891-10.65-1.638-22.323-12.288-26.214l-175.104-63.693c-2.253-0.819-4.71-1.229-6.963-1.229zM648.806 471.142l128.205-352.256 136.602 49.766-128.205 352.256-136.602-49.766zM306.79 708.71h-82.33c-11.264 0-20.48 9.216-20.48 20.48s9.216 20.48 20.48 20.48h82.33c11.264 0 20.48-9.216 20.48-20.48s-9.011-20.48-20.48-20.48zM521.626 204.902h-28.877c-11.264 0-20.48 9.216-20.48 20.48s9.216 20.48 20.48 20.48h28.877c11.264 0 20.48-9.216 20.48-20.48s-9.011-20.48-20.48-20.48zM306.79 641.126h-82.33c-11.264 0-20.48 9.216-20.48 20.48s9.216 20.48 20.48 20.48h82.33c11.264 0 20.48-9.216 20.48-20.48s-9.011-20.48-20.48-20.48zM755.302 372.429c-8.397 0-16.179 5.12-19.251 13.517l-23.962 65.741c-3.891 10.65 1.638 22.323 12.288 26.214s22.323-1.638 26.214-12.288l23.962-65.741c3.891-10.65-1.638-22.323-12.288-26.214-2.253-0.819-4.71-1.229-6.963-1.229zM774.963 216.166c-8.397 0-16.179 5.12-19.251 13.517-3.891 10.65 1.638 22.323 12.288 26.214l65.741 23.962c10.65 3.891 22.323-1.638 26.214-12.288s-1.638-22.323-12.288-26.214l-65.741-23.962c-2.253-0.819-4.71-1.229-6.963-1.229zM795.238 160.461c-8.397 0-16.179 5.12-19.251 13.517-3.891 10.65 1.638 22.323 12.288 26.214l65.741 23.962c10.65 3.891 22.323-1.638 26.214-12.288s-1.638-22.323-12.288-26.214l-65.741-23.962c-2.253-0.819-4.71-1.229-6.963-1.229zM306.79 145.51h-82.33c-11.264 0-20.48 9.216-20.48 20.48s9.216 20.48 20.48 20.48h82.33c11.264 0 20.48-9.216 20.48-20.48s-9.011-20.48-20.48-20.48zM521.626 145.51h-28.877c-11.264 0-20.48 9.216-20.48 20.48s9.216 20.48 20.48 20.48h28.877c11.264 0 20.48-9.216 20.48-20.48s-9.011-20.48-20.48-20.48z" />
<glyph unicode="&#xe922;" glyph-name="Bike" d="M764.494 509.62c-32.768 0.205-65.126-8.602-93.184-25.6l-54.886 85.811 27.443 78.438h40.141c11.059 0 18.227 7.373 18.227 18.227s-7.373 18.227-18.227 18.227h-105.882c-11.059 0-18.227-7.373-18.227-18.227s7.373-18.227 18.227-18.227h25.6l-21.914-62.054-202.752 25.6 38.298 111.411h56.525c11.059 0 18.227 7.373 18.227 18.227s-7.373 18.227-18.227 18.227h-69.427c-7.782-0.205-14.336-5.325-16.384-12.698-7.373-20.070-73.114-211.763-85.811-244.736-13.722 3.686-27.853 5.53-41.984 5.53-102.195 1.843-186.368-82.125-186.368-186.368-0.205-102.605 82.739-186.163 185.549-186.368 0.205 0 0.614 0 0.819 0 102.195 0 186.368 83.968 186.368 186.368 0 76.8-45.67 140.698-111.411 169.779l20.070 60.211 138.854-239.206c1.843-5.53 7.373-9.216 14.541-9.216l69.427-7.373c12.902-91.955 91.546-160.358 184.525-160.768 102.195 0 186.368 83.968 186.368 186.368s-82.33 188.416-184.525 188.416zM412.033 321.614c0-82.125-67.584-149.709-149.709-149.709s-151.552 67.584-151.552 149.709 67.584 149.709 149.709 149.709c9.83-0.205 19.661-1.434 29.286-3.686l-49.357-142.541c-3.686-9.216 1.843-20.070 11.059-23.757s20.070 1.843 23.757 11.059l49.357 142.541c53.043-22.938 87.45-75.366 87.45-133.325v0zM640.18 462.107c-36.454-32.973-60.211-78.438-62.054-129.638l-43.827 5.53 65.741 188.211 40.141-64.102zM660.455 431.182l71.27-113.254-118.784 12.698c1.843 38.502 20.070 74.957 47.514 100.557v0zM570.958 551.604l-63.898-186.368-118.784 208.282 182.682-21.914zM764.494 171.905c-71.68 0-133.53 50.381-147.866 120.627l149.709-14.541c16.384-1.843 25.6 14.541 16.384 27.443l-93.184 147.866c22.733 13.312 48.538 20.070 74.957 20.070 82.125 0 149.709-67.584 149.709-149.709s-67.584-151.757-149.709-151.757v0z" />
<glyph unicode="&#xe923;" glyph-name="Boat" d="M833.946 441.651l-40.346 27.443v282.010c0 11.059-7.373 18.227-18.227 18.227h-62.259v100.762c0 11.059-7.373 18.227-18.227 18.227h-366.387c-11.059 0-18.227-7.373-18.227-18.227v-100.762h-62.259c-11.059 0-18.227-7.373-18.227-18.227v-282.010l-40.346-27.443c-23.757-16.179-34.611-45.466-27.443-73.318l89.702-289.178c2.253-5.939 6.963-10.65 12.902-12.902l243.302-56.73h9.216l239.821 56.73c5.53 1.843 11.059 5.53 12.902 12.902l91.546 289.178c5.325 22.118-1.843 54.886-27.443 73.318zM346.931 851.661h327.68v-82.33h-327.68v82.33zM266.24 732.672h490.701v-239.821l-234.291 161.178c-6.144 3.686-13.926 3.686-20.070 0l-234.496-161.178v239.821h-1.843zM736.87 99.226l-225.075-53.043-227.123 53.043-45.67 142.746 270.95 183.091 270.95-183.091-44.032-142.746zM824.73 379.392l-31.13-98.918-272.794 183.091c-6.144 3.686-13.926 3.686-20.070 0l-272.794-183.091-31.13 98.918c-1.843 11.059 3.686 25.6 12.902 32.973l302.080 205.005 300.237-205.005c10.854-7.373 16.384-21.914 12.698-32.973zM414.72 829.747h-29.286c-11.059 0-18.227-7.373-18.227-18.227s7.373-18.227 18.227-18.227h29.286c11.059 0 18.227 7.373 18.227 18.227s-7.373 18.227-18.227 18.227zM526.336 829.747h-29.286c-11.059 0-18.227-7.373-18.227-18.227s7.373-18.227 18.227-18.227h29.286c11.059 0 18.227 7.373 18.227 18.227 0 10.035-8.192 18.227-18.227 18.227zM637.952 829.747h-29.286c-11.059 0-18.227-7.373-18.227-18.227s7.373-18.227 18.227-18.227h29.286c11.059 0 18.227 7.373 18.227 18.227 0 10.035-8.192 18.227-18.227 18.227zM372.531 708.915h-44.032c-11.059 0-18.227-7.373-18.227-18.227 0-11.059 7.373-18.227 18.227-18.227h42.189c11.059 0 18.227 7.373 18.227 18.227s-7.168 18.227-16.384 18.227zM551.936 690.688c0 11.059-7.373 18.227-18.227 18.227h-42.189c-11.059 0-18.227-7.373-18.227-18.227 0-11.059 7.373-18.227 18.227-18.227h42.189c10.035-0.205 18.227 7.987 18.227 18.227zM650.854 672.256h42.189c11.059 0 18.227 7.373 18.227 18.227s-7.373 18.227-18.227 18.227h-42.189c-11.059 0-18.227-7.373-18.227-18.227-0.205-10.035 7.987-18.227 18.227-18.227z" />
<glyph unicode="&#xe924;" glyph-name="Bus" d="M886.17 668.979h-24.781v107.11c-0.41 36.864-30.106 66.56-66.97 66.97h-139.674v19.046c0 19.046-17.203 36.25-36.25 36.25h-210.534c-19.046 0-36.25-17.203-36.25-36.25v-19.046h-139.878c-36.864-0.41-66.56-30.106-66.97-66.97v-108.954h-24.781c-25.19-0.41-45.466-20.685-45.875-45.875v-103.219c0.41-25.19 20.685-45.466 45.875-45.875h24.781v-296.55c0-19.046 7.578-34.406 19.046-47.718v-76.595c0-29.491 23.757-53.453 53.453-53.453 0 0 0.205 0 0.205 0h55.501c29.491 0 53.453 23.757 53.658 53.453 0 0 0 0.205 0 0.205v57.344h328.909v-57.344c0-29.491 23.757-53.453 53.453-53.453 0 0 0.205 0 0.205 0h55.501c29.491 0 53.453 23.757 53.658 53.453 0 0 0 0.205 0 0.205v76.595c12.493 12.902 19.251 29.901 19.046 47.718v295.936h24.781c25.19 0.41 45.466 20.685 45.875 45.875v103.219c3.891 26.829-15.36 47.923-41.984 47.923zM822.886 175.616c-0.41-15.77-13.107-28.262-28.672-28.672h-562.381c-15.77 0.41-28.262 13.107-28.672 28.672v145.408h617.882v-145.408h1.843zM203.162 359.117v294.707h617.882v-296.55h-617.882v1.843zM409.805 862.31h204.595v-19.046h-204.595v19.046zM231.834 806.81h560.538c15.77-0.41 28.262-13.107 28.672-28.672v-84.173h-617.882v82.125c0 17.203 13.517 30.72 28.672 30.72zM140.083 510.259c-4.096 0.205-7.373 3.482-7.578 7.578v103.219c0.205 4.096 3.482 7.373 7.578 7.578h24.781v-120.422h-24.781v2.048zM310.272 51.098c0.205-8.397-6.554-15.155-14.95-15.36-0.205 0-0.205 0-0.41 0h-55.296c-8.397-0.205-15.155 6.554-15.36 14.95 0 0.205 0 0.205 0 0.41v57.344c9.626-1.843 76.595 0 88.064 0v-57.344h-2.048zM786.637 35.942h-55.501c-8.397-0.205-15.155 6.554-15.36 14.95 0 0.205 0 0.205 0 0.41v57.344h88.064v-57.344c0-7.782-7.578-15.36-17.203-15.36zM893.747 517.837c-0.205-4.096-3.482-7.373-7.578-7.578h-24.781v120.422h24.781c4.096-0.205 7.373-3.482 7.578-7.578v-105.267zM715.776 164.147c36.864 0.41 66.56 30.106 66.97 66.97-0.41 36.864-30.106 66.56-66.97 66.97-36.864-0.41-66.56-30.106-66.97-66.97 0.614-36.864 30.31-66.56 66.97-66.97zM715.776 259.789c15.77-0.41 28.262-13.107 28.672-28.672-0.41-15.77-13.107-28.262-28.672-28.672-15.77 0.41-28.262 13.107-28.672 28.672-0.205 15.565 12.083 28.467 27.648 28.672 0.41 0 0.819 0 1.024 0v0zM310.272 164.147c36.864 0.41 66.56 30.106 66.97 66.97-0.41 36.864-30.106 66.56-66.97 66.97-36.864-0.41-66.56-30.106-66.97-66.97 0.614-36.864 30.31-66.56 66.97-66.97zM310.272 259.789c15.77-0.41 28.262-13.107 28.672-28.672-0.41-15.77-13.107-28.262-28.672-28.672-15.77 0.41-28.262 13.107-28.672 28.672-0.205 15.565 12.083 28.467 27.648 28.672 0.41 0 0.819 0 1.024 0v0zM432.742 724.48h158.72c11.469 0 19.046 7.578 19.046 19.046s-7.578 19.046-19.046 19.046h-158.72c-11.469 0-19.046-7.578-19.046-19.046 0-10.445 8.602-19.046 19.046-19.046z" />
<glyph unicode="&#xe925;" glyph-name="BusIDF" d="M513.876-0.956c-119.398 0-231.629 46.49-316.211 130.867-84.378 84.378-130.867 196.813-130.867 316.211s46.49 231.629 130.867 316.211c84.582 84.378 196.813 130.867 316.211 130.867s231.629-46.49 316.211-130.867c84.378-84.378 130.867-196.813 130.867-316.211s-46.49-231.629-130.867-316.211-196.813-130.867-316.211-130.867zM513.876 821.52c-207.053 0-375.398-168.346-375.398-375.398s168.346-375.398 375.398-375.398c207.053 0 375.398 168.346 375.398 375.398s-168.346 375.398-375.398 375.398zM320.684 550.84c14.541 0 26.829-1.434 37.069-4.096s18.637-6.554 25.19-11.674c6.554-4.915 11.264-11.059 14.131-18.227s4.506-15.155 4.506-23.962c0-4.915-0.819-9.626-2.253-14.336-1.434-4.506-3.686-8.806-6.758-12.902s-6.963-7.578-11.674-10.854c-4.71-3.277-10.445-5.939-16.998-8.397 14.746-3.482 25.395-9.011 32.563-16.998 6.963-7.782 10.445-18.022 10.445-30.515 0-9.011-1.843-17.613-5.325-25.395s-8.602-14.541-15.36-20.275c-6.758-5.734-14.95-10.24-24.781-13.517s-21.094-4.915-33.997-4.915h-83.354v215.45h76.595zM288.735 516.844v-58.163h29.286c6.144 0 11.878 0.614 16.589 1.638 4.915 1.024 9.011 2.662 12.083 4.915 3.277 2.253 5.734 5.325 7.578 9.011 1.638 3.686 2.662 8.192 2.662 13.517s-0.819 9.83-2.253 13.722c-1.434 3.686-3.686 6.758-6.554 9.011-3.072 2.253-6.758 3.891-11.264 4.915s-10.035 1.638-16.179 1.638h-31.949zM327.033 369.388c7.168 0 12.902 0.819 17.613 2.662s8.192 4.096 11.059 6.963c2.867 2.867 4.71 6.144 5.734 9.83s1.638 7.578 1.638 11.469c0 4.301-0.614 8.192-1.843 11.674s-3.277 6.349-6.144 8.806c-2.867 2.458-6.554 4.301-11.264 5.53s-10.24 1.843-16.998 1.843h-37.888v-58.982h38.093zM529.58 371.026c7.168 0 13.722 1.229 19.456 3.686s10.65 5.939 14.541 10.24c3.891 4.506 6.963 9.83 9.011 16.179s3.072 13.517 3.072 21.299v128.205h44.646v-128.205c0-13.107-2.048-24.986-6.349-36.045-4.301-10.854-10.24-20.275-18.022-28.262s-17.408-14.131-28.467-18.637-23.757-6.758-37.888-6.758-26.624 2.253-37.888 6.758c-11.264 4.506-20.685 10.65-28.672 18.637-7.782 7.987-13.926 17.408-18.022 28.262-4.301 10.854-6.349 22.938-6.349 36.045v128.205h44.646v-128.205c0-7.987 1.024-14.95 3.072-21.299s5.12-11.674 9.011-16.179c3.891-4.506 8.806-7.987 14.541-10.24 5.734-2.458 12.288-3.686 19.661-3.686zM779.436 509.471c-1.434-2.253-2.867-3.891-4.301-4.915s-3.277-1.638-5.53-1.638c-2.253 0-4.506 0.819-6.963 2.253s-5.53 3.277-8.806 4.915c-3.277 1.843-7.168 3.482-11.674 4.915-4.301 1.434-9.421 2.253-15.36 2.253-10.24 0-18.022-2.253-23.142-6.963-5.12-4.506-7.782-10.65-7.782-18.022 0-4.71 1.434-8.602 4.301-11.878 2.867-3.072 6.554-5.734 11.059-8.192 4.506-2.253 9.83-4.301 15.565-6.144 5.939-1.843 11.878-3.686 18.022-5.939 6.144-2.048 12.083-4.71 18.022-7.578s11.059-6.554 15.565-10.854c4.506-4.301 8.397-9.626 11.059-15.974 2.867-6.349 4.301-13.926 4.301-22.938 0-9.83-1.638-19.046-5.12-27.443-3.482-8.602-8.397-15.974-14.746-22.323s-14.336-11.469-23.757-15.155c-9.421-3.686-20.070-5.53-32.154-5.53-6.758 0-13.722 0.614-20.48 2.048s-13.312 3.277-19.661 5.734c-6.349 2.458-12.288 5.53-17.818 8.806-5.53 3.482-10.445 7.373-14.541 11.674l13.107 21.094c1.024 1.638 2.458 2.867 4.301 3.891s3.686 1.638 5.734 1.638c2.662 0 5.53-1.024 8.397-3.072s6.349-4.096 10.24-6.554c3.891-2.458 8.397-4.506 13.517-6.554s11.264-3.072 18.432-3.072c10.445 0 18.432 2.458 24.166 7.168s8.602 11.878 8.602 21.299c0 5.53-1.434 9.83-4.301 13.312-2.867 3.277-6.554 6.144-11.059 8.397s-9.83 4.301-15.565 5.939c-5.939 1.638-11.878 3.482-18.022 5.325-6.144 2.048-12.083 4.301-18.022 7.168s-11.059 6.349-15.565 11.059c-4.506 4.506-8.192 10.24-11.059 16.998s-4.301 15.155-4.301 25.19c0 7.987 1.638 15.77 4.71 23.347s7.782 14.131 13.926 20.070c6.144 5.939 13.722 10.445 22.733 14.131 9.011 3.482 19.251 5.325 30.72 5.325 12.902 0 24.986-2.048 36.045-5.939 11.059-4.096 20.275-9.626 28.058-16.794l-10.854-20.48z" />
<glyph unicode="&#xe926;" glyph-name="Calme" d="M541.491-61.133c-12.493 0-24.576 5.53-32.768 15.36l-222.413 267.469h-211.968c-23.552 0-42.598 19.046-42.598 42.598v327.68c0 23.552 19.046 42.598 42.598 42.598h210.33l222.208 306.79c10.854 14.95 30.106 21.299 47.718 15.565s29.491-22.118 29.491-40.55v-934.707c0-18.022-11.264-33.997-28.262-40.141-4.506-1.843-9.421-2.662-14.336-2.662zM116.941 307.098h189.44c12.698 0 24.781-5.734 32.768-15.36l159.539-192.102v685.056l-157.696-217.907c-7.987-11.059-20.89-17.613-34.611-17.613h-189.44v-242.074zM708.608 225.792l-62.874 57.754-0.205-0.205c2.048 2.253 51.405 58.778 51.405 155.853 0 99.533-53.043 169.574-53.453 170.394-14.541 18.637-11.264 45.261 7.373 59.802s45.466 11.264 60.006-7.373c2.867-3.686 71.475-92.979 71.475-222.822 0-131.686-70.656-210.125-73.728-213.402zM765.542 101.069c-10.24 0-20.48 3.686-28.672 11.059-17.408 15.974-18.637 42.803-2.867 60.211 0.819 0.819 87.040 99.123 87.040 263.987 0 168.55-88.269 284.262-89.293 285.491-14.541 18.637-11.059 45.466 7.578 59.802 18.637 14.541 45.466 11.059 59.802-7.578 4.301-5.734 107.11-140.288 107.11-337.715 0-199.27-104.858-316.621-109.363-321.536-8.397-9.216-19.866-13.722-31.334-13.722z" />
<glyph unicode="&#xe927;" glyph-name="Car" d="M939.158 442.235c-25.805 46.080-156.672 71.885-210.125 79.258-27.648 16.589-116.122 94.003-132.71 103.219-44.237 27.648-123.494 31.334-333.619 20.275-130.867-11.059-184.32-134.554-189.85-211.968-2.048-51.61-3.891-82.944 16.384-108.749 0-3.686 5.53-5.53 11.059-5.53h49.766c7.373-42.394 44.237-73.728 86.63-73.728s79.258 31.334 86.63 73.728h372.326c7.373-42.394 44.237-73.728 86.63-73.728s79.258 31.334 86.63 73.728h42.394c22.118 0 42.394 18.432 40.55 42.394v0c2.048 16.589-5.325 68.198-12.698 81.101zM576.047 593.377c12.902-11.059 55.296-44.237 88.474-71.885h-245.146v92.16c18.432 0 114.278 3.686 156.672-20.275zM264.546 608.123c29.491 1.843 75.571 3.686 117.965 5.53v-90.317h-246.989c22.118 40.55 60.826 79.258 129.024 84.787v0zM238.742 281.876c-28.467-0.205-51.61 22.528-51.814 50.995 0 1.434 0 2.867 0.205 4.301 1.843 27.648 23.962 49.766 51.61 49.766s49.766-22.118 51.61-51.61c0-31.334-23.962-53.453-51.61-53.453v0zM784.329 281.876c-28.467-0.205-51.61 22.528-51.814 50.995 0 1.434 0 2.867 0.205 4.301 1.843 27.648 23.962 49.766 51.61 49.766s49.766-22.118 51.61-51.61c0-31.334-23.962-53.453-51.61-53.453v0zM913.353 355.604h-42.394c-11.059 42.394-49.766 66.355-86.63 66.355s-73.728-23.962-86.63-66.355h-374.17c-11.059 42.394-47.923 66.355-86.63 66.355-42.394 0-77.414-31.334-86.63-66.355h-38.707c-9.216 18.432-9.216 81.101 7.373 130.867h600.883c42.394-7.373 164.045-31.334 186.163-60.826 5.53-20.275 11.059-46.080 11.059-66.355 0-2.048-1.638-3.686-3.686-3.686v0z" />
<glyph unicode="&#xe928;" glyph-name="Checkmark" d="M399.36 173.773c-9.83 0-19.661 3.482-27.648 10.65l-240.64 219.546c-16.794 15.155-17.818 41.165-2.662 57.958s41.165 17.818 57.958 2.662l211.763-193.126 438.067 438.067c15.974 15.974 41.984 15.974 57.958 0s15.974-41.984 0-57.958l-465.715-465.715c-7.987-7.987-18.637-12.083-29.082-12.083z" />
<glyph unicode="&#xe929;" glyph-name="Collge" d="M894.867 46.553h-765.747c-32.768 0-59.392 26.624-59.392 59.392v632.627c0 32.768 26.624 59.392 59.392 59.392h765.747c32.768 0 59.392-26.624 59.392-59.392v-632.627c0-32.768-26.624-59.392-59.392-59.392zM129.12 757.004c-10.24 0-18.432-8.192-18.432-18.432v-632.627c0-10.24 8.192-18.432 18.432-18.432h765.747c10.24 0 18.432 8.192 18.432 18.432v632.627c0 10.24-8.192 18.432-18.432 18.432h-765.747zM469.293 583.743h-90.112v-90.112h-47.309v90.112h-90.522v47.514h90.522v90.522h47.309v-90.522h90.112v-47.514zM469.293 243.775h-227.942v47.514h227.942v-47.514zM355.629 141.375c-9.216 0-16.998 3.072-23.347 9.216s-9.626 13.517-9.626 22.528c0 9.626 3.072 17.818 9.216 24.371s14.131 9.83 23.757 9.83c9.626 0 17.408-3.072 23.347-9.421s8.806-14.336 8.806-24.166c0-9.421-3.072-17.203-9.421-23.142-6.144-6.349-13.722-9.216-22.733-9.216zM356.653 328.358c-9.216 0-16.998 3.072-23.347 9.421-6.349 6.144-9.626 13.722-9.626 22.733 0 9.626 3.072 17.818 9.216 24.166 6.144 6.554 14.131 9.626 23.757 9.626s17.408-3.072 23.347-9.421c5.939-6.144 8.806-14.336 8.806-24.166 0-9.421-3.072-17.408-9.421-23.347s-13.926-9.011-22.733-9.011zM722.631 572.275h-128v51.814h128v-51.814zM772.397 294.156h-227.942v47.923h227.942v-47.923zM772.397 192.575h-227.942v47.514h227.942v-47.514z" />
<glyph unicode="&#xe92a;" glyph-name="Connectivity" d="M515.072-14.029c-23.552 0-42.598 19.046-42.598 42.598v182.886c0 23.552 19.046 42.598 42.598 42.598s42.598-19.046 42.598-42.598v-182.886c0-23.347-19.046-42.598-42.598-42.598zM512.41 185.856c-71.885 0-130.253 58.573-130.253 130.458s58.368 130.458 130.253 130.458 130.253-58.573 130.253-130.458-58.573-130.458-130.253-130.458zM512.41 361.37c-24.781 0-44.851-20.275-44.851-45.056s20.070-45.056 44.851-45.056c24.781 0 44.851 20.275 44.851 45.056s-20.070 45.056-44.851 45.056zM318.464 411.75c-5.939 0-11.878 1.229-17.613 3.686-21.504 9.626-31.13 35.021-21.299 56.525 2.458 5.53 63.693 136.602 237.568 136.602 91.136 0 147.866-36.864 179.61-67.994 34.611-33.792 47.309-68.198 48.742-71.885l-80.486-28.672 0.205-0.41c-1.229 3.482-33.382 83.558-148.070 83.558-119.398 0-159.334-85.606-159.744-86.426-6.963-15.565-22.528-24.986-38.912-24.986zM183.501 488.96c-5.939 0-11.878 1.229-17.613 3.891-21.504 9.626-30.925 35.021-21.299 56.525 1.024 2.253 25.805 55.91 84.787 108.544 53.862 47.923 148.070 105.062 291.635 105.062 144.589 0 234.291-57.958 284.058-106.496 53.862-52.429 73.523-104.653 75.571-110.387l-80.282-28.672v-0.205c-2.458 6.554-62.259 160.563-279.347 160.563-222.003 0-297.984-161.997-298.598-163.635-7.168-15.77-22.733-25.19-38.912-25.19zM970.342 561.664c-17.613 0-33.997 10.854-40.141 28.262-0.205 0.41-22.528 59.802-83.558 118.17-81.101 77.414-189.44 116.531-322.15 116.531-320.512 0-430.899-235.52-431.923-237.978-9.83-21.504-35.021-30.925-56.525-21.299-21.504 9.83-30.925 35.021-21.299 56.525 1.434 3.072 34.406 74.752 114.074 145.818 46.49 41.37 99.533 74.342 157.696 98.099 72.090 29.286 152.166 44.237 237.978 44.237 195.994 0 317.235-78.029 384.614-143.565 73.728-71.885 100.352-144.589 101.376-147.661 7.987-22.118-3.686-46.694-25.805-54.477-4.71-1.843-9.626-2.662-14.336-2.662z" />
<glyph unicode="&#xe92b;" glyph-name="Ecole" d="M705.333-29.030c-134.349 0-243.712 109.363-243.712 243.712s109.363 243.917 243.712 243.917 243.712-109.363 243.712-243.712-109.158-243.917-243.712-243.917zM705.333 417.638c-111.821 0-202.752-90.931-202.752-202.752s90.931-202.752 202.752-202.752c111.821 0 202.752 90.931 202.752 202.752s-90.726 202.752-202.752 202.752zM489.064 139.93c-3.277 0-6.758 0.819-9.83 2.458-9.83 5.53-13.517 18.022-7.987 27.853l71.475 129.434c4.915 9.011 15.77 12.902 25.395 9.216 0.614-0.205 67.379-25.805 131.891-25.805 64.717 0 129.843 25.395 130.662 25.6 8.806 3.482 18.842 0.41 24.166-7.168l84.992-119.603c6.554-9.216 4.301-21.914-4.915-28.467s-21.914-4.301-28.467 4.915l-76.186 106.906c-24.986-8.397-77.005-23.142-130.458-23.142-52.224 0-103.834 14.131-129.638 22.528l-63.078-114.278c-3.891-6.758-10.854-10.445-18.022-10.445zM657.156 172.171c0-17.871-14.121-32.358-31.539-32.358s-31.539 14.487-31.539 32.358c0 17.871 14.121 32.358 31.539 32.358s31.539-14.487 31.539-32.358zM821.815 172.171c0-17.871-14.121-32.358-31.539-32.358s-31.539 14.487-31.539 32.358c0 17.871 14.121 32.358 31.539 32.358s31.539-14.487 31.539-32.358zM706.922 44.99c-57.958 0-76.8 27.034-78.848 30.106l26.010 16.384c0 0 0 0.205-0.205 0.41 0.205-0.205 12.493-16.384 53.043-16.384 40.346 0 53.248 15.77 53.248 15.974 4.71 7.168 14.131 9.216 21.299 4.506s9.216-14.131 4.506-21.299c-2.048-2.662-21.299-29.696-79.053-29.696zM293.382 393.511c-134.349 0-243.712 109.363-243.712 243.712s109.363 243.712 243.712 243.712 243.712-109.363 243.712-243.712c0.205-134.349-109.158-243.712-243.712-243.712zM293.382 840.18c-111.821 0-202.752-90.931-202.752-202.752s90.931-202.752 202.752-202.752 202.752 90.931 202.752 202.752c0.205 111.821-90.726 202.752-202.752 202.752zM77.113 624.935c-10.854 0-19.866 8.602-20.48 19.456-0.614 11.264 8.192 20.89 19.456 21.504 2.458 0.205 202.342 11.059 279.757 101.581 4.915 5.734 12.698 8.397 20.070 6.554 7.373-1.638 13.312-7.168 15.36-14.541 22.118-80.282 112.435-78.029 116.326-77.824 11.264 0.41 20.89-8.397 21.299-19.661s-8.192-20.685-19.456-21.299c-1.229 0-31.949-1.229-66.15 11.059-35.84 12.902-62.874 35.43-79.258 66.15-98.099-82.944-277.709-92.57-285.901-92.979-0.41 0-0.614 0-1.024 0zM245.205 594.713c0-17.871-14.121-32.358-31.539-32.358s-31.539 14.487-31.539 32.358c0 17.871 14.121 32.358 31.539 32.358s31.539-14.487 31.539-32.358zM409.864 594.713c0-17.871-14.121-32.358-31.539-32.358s-31.539 14.487-31.539 32.358c0 17.871 14.121 32.358 31.539 32.358s31.539-14.487 31.539-32.358zM294.971 467.532c-57.958 0-76.8 27.034-78.848 30.106l26.010 16.384c0 0 0 0.205-0.205 0.41 0.205-0.205 12.493-16.384 53.043-16.384 40.346 0 53.248 15.77 53.248 15.974 4.71 7.168 14.131 9.216 21.299 4.506s9.216-14.131 4.506-21.299c-2.048-2.662-21.299-29.696-79.053-29.696zM696.32 570.266c-1.229 0-2.662 0.205-3.891 0.41-4.301 0.819-104.243 21.299-136.397 100.557-7.578 18.637-9.216 37.478-10.854 55.91-2.048 23.347-3.686 43.418-17.203 58.982-20.685 24.166-66.15 12.288-66.56 12.083-7.578-2.048-15.77 0.205-20.89 6.144-0.205 0.205-25.805 28.262-70.861 34.202-5.734 0.819-11.059 4.096-14.336 8.806-3.277 4.915-4.301 10.854-2.867 16.589 8.192 31.334 46.694 69.427 128.41 73.114 0.614 0 1.024 0 1.638 0 70.656-2.458 120.218-14.746 165.069-70.042 32.154-39.526 22.528-73.114 13.926-102.81-4.506-15.974-9.421-32.563-9.421-52.224 0-0.614 0-1.229 0-1.843-3.686-40.141 40.55-88.883 57.958-104.243 6.963-6.144 8.806-16.179 4.71-24.371-3.482-6.963-10.65-11.264-18.432-11.264zM486.605 842.035c22.938 0 52.019-5.53 72.499-29.286 21.914-25.6 24.576-55.706 26.829-82.125 1.434-15.974 2.662-31.13 7.987-44.032 7.373-18.227 20.48-32.563 35.021-43.418-11.469 21.094-19.661 45.261-17.613 69.837 0.205 25.19 5.939 45.056 10.854 62.669 7.987 27.648 12.288 42.803-6.349 65.536-35.226 43.418-72.909 52.634-133.939 54.886-39.322-1.843-63.283-12.698-76.39-23.962 27.238-9.011 46.49-23.142 56.934-32.154 6.144 1.229 14.541 2.048 24.166 2.048z" />
<glyph unicode="&#xe92c;" glyph-name="Education" d="M519.987 129.946c-4.301 0-8.602 0-12.902 0.205-111.206 3.277-219.955 49.152-298.394 125.747-8.192 7.987-12.902 19.046-12.902 30.515v170.803c0 23.552 19.046 42.598 42.598 42.598s42.598-19.046 42.598-42.598v-152.166c132.096-117.146 332.186-120.013 461.414-6.963 0 2.867 0 6.144 0 9.83 0 14.95 0 35.43 0 61.235 0.205 43.827 0.614 88.064 0.614 88.474 0.205 23.347 19.251 42.394 42.598 42.394 0.205 0 0.205 0 0.41 0 23.552-0.205 42.598-19.456 42.394-43.008-0.614-72.909-1.024-155.648-0.41-171.213 1.843-12.902-2.458-26.419-12.493-36.25-79.053-77.414-183.706-119.603-295.526-119.603zM116.736 341.914c-23.552 0-42.598 19.046-42.598 42.598v149.504c0 23.552 19.046 42.598 42.598 42.598s42.598-19.046 42.598-42.598v-149.504c0-23.552-19.046-42.598-42.598-42.598zM517.939 337.613c-4.915 0-9.626 0.819-14.336 2.458l-467.558 165.478c-16.794 5.939-28.262 21.709-28.467 39.731s10.65 33.997 27.443 40.346l467.763 179.405c10.035 3.891 20.89 3.686 30.925-0.205l455.68-179.405c16.589-6.554 27.238-22.528 27.034-40.346s-11.469-33.382-28.058-39.526l-455.68-165.683c-4.71-1.434-9.626-2.253-14.746-2.253zM173.466 547.533l344.269-122.061 335.462 121.856-335.462 132.096-344.269-131.891z" />
<glyph unicode="&#xe92d;" glyph-name="Health" d="M457.523-36.966c-0.205 0-0.205 0-0.41 0-21.094 0.205-38.912 15.77-41.779 36.659l-65.126 454.246-19.251-65.331c-5.325-18.227-21.914-30.72-40.96-30.72h-246.989c-23.552 0-42.598 19.046-42.598 42.598s19.046 42.598 42.598 42.598h215.040l65.536 222.618c5.734 19.251 23.962 31.949 44.032 30.515s36.25-16.589 39.117-36.454l53.248-371.712 92.774 572.006c3.277 20.275 20.48 35.43 41.165 35.84 20.48 0.41 38.502-13.722 42.803-33.792l89.293-422.707 205.21 3.686c0.205 0 0.614 0 0.819 0 23.142 0 42.189-18.637 42.598-41.984 0.41-23.552-18.432-43.008-41.984-43.418l-240.435-4.096c-20.48-0.205-38.298 13.926-42.598 33.792l-49.357 233.472-100.762-622.182c-3.277-20.48-21.094-35.635-41.984-35.635zM1017.856 401.715c0-40.945-33.193-74.138-74.138-74.138s-74.138 33.193-74.138 74.138c0 40.945 33.193 74.138 74.138 74.138s74.138-33.193 74.138-74.138z" />
<glyph unicode="&#xe92e;" glyph-name="Hebergement" d="M921.6 222.593h-817.152v167.936h817.152v-167.936zM145.408 263.553h735.232v86.016h-735.232v-86.016zM921.6 351.617h-817.152v20.48c0 81.306 66.15 147.456 147.456 147.456h522.24c81.306 0 147.456-66.15 147.456-147.456v-20.48zM147.456 392.577h731.136c-9.626 48.947-52.838 86.016-104.448 86.016h-522.24c-51.814 0-95.027-37.069-104.448-86.016zM124.928 150.094c-11.264 0-20.48 9.216-20.48 20.48v71.27c0 11.264 9.216 20.48 20.48 20.48s20.48-9.216 20.48-20.48v-71.27c0-11.264-9.216-20.48-20.48-20.48zM901.12 150.094c-11.264 0-20.48 9.216-20.48 20.48v71.27c0 11.264 9.216 20.48 20.48 20.48s20.48-9.216 20.48-20.48v-71.27c0-11.264-9.216-20.48-20.48-20.48zM445.44 527.745c-0.205 0-0.205 0-0.41 0-11.264 0.205-20.275 9.421-20.070 20.89l1.024 64.307h-92.365l-1.024-64.922c-0.205-11.264-9.216-20.070-20.48-20.070-0.205 0-0.205 0-0.41 0-11.264 0.205-20.275 9.421-20.070 20.89l1.229 85.197c0.205 11.264 9.216 20.070 20.48 20.070h133.325c5.53 0 10.65-2.253 14.541-6.144s5.939-9.216 5.939-14.746l-1.229-85.197c-0.205-11.264-9.216-20.275-20.48-20.275zM693.248 527.745c-0.205 0-0.205 0-0.41 0-11.264 0.205-20.275 9.421-20.070 20.89l1.024 64.307h-92.365l-1.024-64.922c-0.205-11.264-9.216-20.070-20.48-20.070-0.205 0-0.205 0-0.41 0-11.264 0.205-20.275 9.421-20.070 20.89l1.229 85.197c0.205 11.264 9.216 20.070 20.48 20.070h133.325c5.53 0 10.65-2.253 14.541-6.144s5.939-9.216 5.939-14.746l-1.229-85.197c-0.205-11.264-9.216-20.275-20.48-20.275zM821.248 520.577c-11.264 0-20.48 9.216-20.48 20.48v187.597h-596.582v-187.597c0-11.264-9.216-20.48-20.48-20.48s-20.48 9.216-20.48 20.48v208.077c0 11.264 9.216 20.48 20.48 20.48h637.542c11.264 0 20.48-9.216 20.48-20.48v-208.077c0-11.264-9.216-20.48-20.48-20.48z" />
<glyph unicode="&#xe92f;" glyph-name="Home" d="M800.594 42.963h-573.44c-22.528 0-40.96 18.432-40.96 40.96v266.65c0 22.528 18.432 40.96 40.96 40.96s40.96-18.432 40.96-40.96v-225.69h491.52v225.69c0 22.528 18.432 40.96 40.96 40.96s40.96-18.432 40.96-40.96v-266.65c0-22.528-18.432-40.96-40.96-40.96zM870.021 412.422c-10.445 0-20.89 4.096-28.877 12.083l-328.294 328.090-328.294-328.294c-15.974-15.974-41.984-15.974-57.958 0s-15.974 41.984 0 57.958l357.376 357.171c7.782 7.782 18.022 12.083 28.877 12.083v0c10.854 0 21.299-4.301 28.877-12.083l357.171-357.171c15.974-15.974 15.974-41.984 0-57.958-7.987-7.987-18.432-11.878-28.877-11.878z" />
<glyph unicode="&#xe930;" glyph-name="Luminosity" d="M512 214.528c-128.614 0-233.472 104.653-233.472 233.472s104.653 233.472 233.472 233.472 233.472-104.653 233.472-233.472-104.858-233.472-233.472-233.472zM512 596.070c-81.715 0-148.070-66.355-148.070-148.070s66.355-148.070 148.070-148.070c81.715 0 148.070 66.355 148.070 148.070s-66.355 148.070-148.070 148.070zM512 726.733c-23.552 0-42.598 19.046-42.598 42.598v147.866c0 23.552 19.046 42.598 42.598 42.598s42.598-19.046 42.598-42.598v-147.866c0-23.552-19.046-42.598-42.598-42.598zM739.123 632.525c-10.854 0-21.914 4.096-30.106 12.493-16.589 16.589-16.589 43.622 0 60.416l104.653 104.653c16.589 16.589 43.622 16.589 60.416 0 16.589-16.589 16.589-43.622 0-60.416l-104.653-104.653c-8.397-8.397-19.251-12.493-30.31-12.493zM981.606 405.197h-148.48c-23.552 0-42.598 19.046-42.598 42.598s19.046 42.598 42.598 42.598h148.48c23.552 0 42.598-19.046 42.598-42.598s-19.046-42.598-42.598-42.598zM843.981 73.216c-10.854 0-21.914 4.096-30.106 12.493l-104.858 104.858c-16.589 16.589-16.589 43.622 0 60.416 16.589 16.589 43.622 16.589 60.416 0l104.858-104.858c16.589-16.589 16.589-43.622 0-60.416-8.602-8.397-19.456-12.493-30.31-12.493zM285.082 632.73c-10.854 0-21.914 4.096-30.106 12.493l-104.653 104.653c-16.589 16.589-16.589 43.622 0 60.416 16.589 16.589 43.622 16.589 60.416 0l104.653-104.653c16.589-16.589 16.589-43.622 0-60.416-8.602-8.397-19.456-12.493-30.31-12.493zM191.078 405.402h-148.48c-23.552 0-42.598 19.046-42.598 42.598s19.046 42.598 42.598 42.598h148.275c23.552 0 42.598-19.046 42.598-42.598 0.205-23.552-18.842-42.598-42.394-42.598zM180.224 73.216c-10.854 0-21.914 4.096-30.106 12.493-16.589 16.589-16.589 43.622 0 60.416l104.858 104.858c16.589 16.589 43.622 16.589 60.416 0 16.589-16.589 16.589-43.622 0-60.416l-104.858-104.858c-8.397-8.192-19.251-12.493-30.31-12.493zM512.41-64.205c-23.552 0-42.598 19.046-42.598 42.598v148.48c0 23.552 19.046 42.598 42.598 42.598 0 0 0 0 0 0 23.552 0 42.598-19.046 42.598-42.598v-148.48c0-23.552-19.046-42.598-42.598-42.598 0 0 0 0 0 0z" />
<glyph unicode="&#xe931;" glyph-name="Lyce" d="M514.253 122.778c-49.562 0-103.014 8.192-150.938 23.552-47.923 15.155-86.835 35.635-109.158 57.958-14.95 14.746-22.528 29.901-22.528 45.466v162.202c0 11.264 9.216 20.48 20.48 20.48s20.48-9.216 20.48-20.48v-162.202c0-2.867 2.662-8.806 10.24-16.179 34.202-33.792 131.686-69.632 231.219-69.632 1.638 0 3.482 0 5.12 0 52.838 0.614 111.616 12.698 161.382 33.178 49.357 20.275 69.222 40.346 71.066 46.694 0.205 144.589 0 164.454 0 167.117-0.41 8.806 4.915 17.203 13.517 20.275 10.65 3.891 22.323-1.843 26.214-12.493 1.229-3.482 1.229-3.482 1.229-28.262 0-19.251 0-60.621-0.205-147.046 0.205-37.478-56.934-67.379-91.136-82.125-55.501-23.757-121.651-37.683-181.658-38.502-1.638 0-3.482 0-5.325 0zM751.411 243.2c0 0 0 0 0 0s0 0 0 0zM752.64 404.787c0 0 0 0 0 0s0 0 0 0zM752.64 404.992c0-0.205 0-0.205 0 0 0-0.205 0-0.205 0 0zM752.64 404.992c0 0 0 0 0 0v0zM517.734 318.157c-2.253 0-4.71 0.41-6.758 1.229l-444.416 157.286c-7.987 2.867-13.517 10.445-13.722 19.046s5.12 16.384 13.107 19.456l444.416 170.394c4.71 1.843 10.035 1.843 14.746 0l432.947-170.394c7.987-3.072 13.107-10.854 12.902-19.251s-5.53-15.974-13.517-19.046l-432.947-157.286c-2.048-1.024-4.301-1.434-6.758-1.434zM132.506 496.742l385.024-136.397 375.194 136.397-375.194 147.661-385.024-147.661zM889.037 225.382c-11.264 0-20.48 9.216-20.48 20.48v222.208c0 11.264 9.216 20.48 20.48 20.48s20.48-9.216 20.48-20.48v-222.208c0-11.264-9.216-20.48-20.48-20.48z" />
<glyph unicode="&#xe932;" glyph-name="Man" d="M615.539 808.468c0 56.934-46.080 103.014-103.014 103.014s-103.014-46.080-103.014-103.014 46.080-103.014 103.014-103.014c56.934 0 103.014 46.080 103.014 103.014zM460.915 808.468c0 28.467 23.142 51.61 51.61 51.61s51.61-23.142 51.61-51.61c0-28.467-23.142-51.61-51.61-51.61s-51.405 23.142-51.61 51.61zM284.582 549.396l-51.405-154.624c-13.517-40.55 8.397-84.173 48.947-97.69s84.173 8.397 97.69 48.947l41.37 124.314 14.131 6.963v-115.917l-122.061-268.083c-17.818-38.707-0.819-84.787 38.093-102.4s84.787-0.819 102.4 38.093c0 0.205 0.205 0.41 0.205 0.41l82.739 181.862 37.069-37.069 45.67-137.216c10.445-31.539 39.936-52.838 73.318-52.838v0c42.598 0 77.21 34.611 77.21 77.414 0 8.397-1.434 16.589-3.891 24.371l-51.61 154.624c-3.891 11.469-10.24 21.709-18.637 30.31l-106.291 106.086v71.066l82.534-61.85c13.312-10.035 29.696-15.565 46.285-15.36 42.598 0 77.414 34.611 77.414 77.21 0 24.371-11.469 47.309-30.925 61.85l-206.029 154.624c-1.638 1.229-3.277 2.253-4.915 3.277-0.41 0.205-0.614 0.41-0.819 0.614 0 0-0.205 0-0.205 0.205-2.662 1.638-5.325 3.072-8.192 4.301-0.614 0.205-1.024 0.41-1.638 0.614-2.253 1.024-4.506 1.843-6.758 2.458-0.819 0.205-1.638 0.614-2.458 0.819-2.048 0.614-4.096 1.024-6.349 1.434-0.819 0.205-1.843 0.41-2.662 0.614-2.662 0.41-5.53 0.819-8.192 0.819-1.434 0-2.662 0-4.096 0s-3.072 0-4.506 0c-1.638 0-3.072-0.205-4.71-0.41-0.614 0-1.229 0-2.048-0.205s-1.434-0.205-2.253-0.41-2.662-0.41-4.096-0.819c-2.458-0.614-4.915-1.229-7.373-2.048-0.205 0-0.614-0.205-0.819-0.205-3.072-1.024-5.939-2.253-8.806-3.686-0.205 0-0.205 0-0.41-0.205l-154.214-77.414c-18.227-9.216-32.154-25.395-38.707-44.851zM589.939 576.635l144.384-108.134c11.469-8.602 13.722-24.781 5.12-36.045-8.602-11.059-24.576-13.312-36.045-5.12l-113.459 84.787v64.512zM407.257 50.504c-6.144-12.698-21.094-18.432-34.202-12.698-12.902 5.939-18.637 21.094-12.698 34.202l98.714 217.088 38.912-38.912-90.726-199.68zM346.431 547.963l154.624 77.21c7.987 4.096 17.408 3.686 24.986-1.024s12.083-12.902 12.288-21.914v-236.339c0-6.758 2.662-13.312 7.578-18.227l113.664-113.664c2.867-2.867 4.915-6.349 6.144-10.035l51.61-154.624c4.506-13.517-2.867-28.058-16.384-32.563-2.662-0.819-5.325-1.229-7.987-1.229v0c-11.059 0-20.89 7.168-24.371 17.613l-47.718 142.95c-1.229 3.891-3.482 7.168-6.144 10.035l-120.218 120.218c-4.915 4.915-7.578 11.469-7.578 18.227v174.285c0 14.131-11.469 25.805-25.805 25.805-4.096 0-7.987-1.024-11.469-2.662l-60.826-30.515c-6.144-3.072-10.854-8.397-12.902-14.95l-44.851-134.349c-4.71-13.517-19.251-20.685-32.768-15.974-13.312 4.506-20.48 18.842-16.179 32.358l51.405 154.624c2.253 6.349 6.758 11.674 12.902 14.746z" />
<glyph unicode="&#xe933;" glyph-name="Map" d="M161.978 53.287c-7.987 0-15.974 2.253-22.733 6.963-11.264 7.578-18.227 20.275-18.227 33.997v606.822c0 16.384 9.83 31.334 24.986 37.683l238.182 101.171c10.445 4.506 22.323 4.301 32.768-0.41l209.306-94.208 223.232 82.125c12.493 4.71 26.624 2.867 37.478-4.915s17.613-20.275 17.613-33.587v-610.304c0-17.408-11.059-32.768-27.443-38.707l-238.797-84.173c-9.83-3.482-20.48-3.072-29.901 1.024l-208.691 90.726-222.208-91.136c-4.915-2.048-10.24-3.072-15.565-3.072zM400.366 232.692c5.53 0 11.059-1.229 16.384-3.482l209.51-90.931 196.403 69.222v522.65l-183.706-67.584c-10.035-3.686-21.094-3.277-30.925 1.024l-208.077 93.798-196.813-83.558v-518.554l181.862 74.342c4.71 2.048 10.035 3.072 15.36 3.072zM360.225 795.277h81.92v-603.136h-81.92v603.136zM585.71 701.889h81.92v-595.354h-81.92v595.354z" />
<glyph unicode="&#xe934;" glyph-name="Maternelle" d="M710.537 432.056h-345.907c-32.768 0-59.392 26.624-59.392 59.392v345.907c0 32.768 26.624 59.392 59.392 59.392h345.907c32.768 0 59.392-26.624 59.392-59.392v-345.907c0-32.768-26.624-59.392-59.392-59.392zM364.63 855.788c-10.24 0-18.432-8.192-18.432-18.432v-345.907c0-10.24 8.192-18.432 18.432-18.432h345.907c10.24 0 18.432 8.192 18.432 18.432v345.907c0 10.24-8.192 18.432-18.432 18.432h-345.907zM639.676 560.876h-50.381l-14.541 45.67h-73.114l-14.336-45.67h-49.971l74.547 205.005h54.682l73.114-205.005zM564.105 641.976l-22.118 69.018c-1.638 5.12-2.867 11.264-3.482 18.432h-1.229c-0.41-5.939-1.638-11.878-3.482-17.818l-22.323-69.427h52.634zM429.875-31.271h-345.907c-32.768 0-59.392 26.624-59.392 59.392v345.907c0 32.768 26.624 59.392 59.392 59.392h345.907c32.768 0 59.392-26.624 59.392-59.392v-345.907c0-32.768-26.624-59.392-59.392-59.392zM83.968 392.46c-10.24 0-18.432-8.192-18.432-18.432v-345.907c0-10.24 8.192-18.432 18.432-18.432h345.907c10.24 0 18.432 8.192 18.432 18.432v345.907c0 10.24-8.192 18.432-18.432 18.432h-345.907zM187.187 95.5v206.438h75.162c23.142 0 40.755-4.301 53.043-12.698s18.637-20.275 18.637-35.635c0-11.059-3.686-20.89-11.264-29.286s-17.203-14.131-28.877-17.408v-0.614c14.746-1.843 26.419-7.168 35.226-16.179s13.107-20.070 13.107-32.973c0-18.842-6.758-33.997-20.275-45.056s-31.949-16.589-55.501-16.589h-79.258zM233.677 267.737v-48.947h20.48c9.626 0 17.203 2.253 22.733 6.963s8.192 11.059 8.192 19.251c0 15.155-11.264 22.733-33.997 22.733h-17.408zM233.677 184.179v-54.477h25.19c10.65 0 19.251 2.458 25.19 7.578 6.144 4.915 9.216 11.878 9.216 20.48 0 8.192-3.072 14.746-9.011 19.456s-14.336 6.963-25.19 6.963h-25.395zM939.923-31.271h-345.907c-32.768 0-59.392 26.624-59.392 59.392v345.907c0 32.768 26.624 59.392 59.392 59.392h345.907c32.768 0 59.392-26.624 59.392-59.392v-345.907c0-32.768-26.624-59.392-59.392-59.392zM594.016 392.46c-10.24 0-18.432-8.192-18.432-18.432v-345.907c0-10.24 8.192-18.432 18.432-18.432h345.907c10.24 0 18.432 8.192 18.432 18.432v345.907c0 10.24-8.192 18.432-18.432 18.432h-345.907zM845.101 106.764c-14.95-7.168-34.202-10.854-58.163-10.854-31.334 0-55.706 9.216-73.728 27.648-17.818 18.432-26.829 42.803-26.829 73.318 0 32.563 10.035 58.982 30.106 79.258s46.285 30.31 78.234 30.31c19.866 0 36.659-2.458 50.176-7.578v-44.237c-13.722 8.192-29.082 12.288-46.49 12.288-19.046 0-34.611-5.939-46.285-18.022s-17.613-28.262-17.613-48.947c0-19.661 5.53-35.43 16.589-47.104s26.010-17.613 44.646-17.613c17.818 0 34.202 4.301 49.152 13.107v-41.574z" />
<glyph unicode="&#xe935;" glyph-name="Metro" d="M678.912 357.069c-36.045-0.41-65.126-29.491-65.536-65.536 0.41-36.045 29.491-65.126 65.536-65.536 36.045 0.41 65.126 29.491 65.536 65.536 0.205 36.045-28.672 65.331-64.717 65.536-0.205 0-0.41 0-0.819 0zM678.912 265.318c-15.36 0.41-27.648 12.698-28.058 28.058 0.41 15.36 12.698 27.648 28.058 28.058 15.36-0.41 27.648-12.698 28.058-28.058 0.205-16.794-11.059-28.058-28.058-28.058zM705.331 188.518h-52.429c-11.264 0-18.637-7.578-18.637-18.637s7.578-18.637 18.637-18.637h52.429c11.264 0 18.637 7.578 18.637 18.637s-7.578 18.637-18.637 18.637zM345.498 357.069c-36.045-0.41-65.126-29.491-65.536-65.536 0.41-36.045 29.491-65.126 65.536-65.536 36.045 0.41 65.126 29.491 65.536 65.536-0.41 36.045-29.491 65.126-65.536 65.536zM345.498 265.318c-15.36 0.41-27.648 12.698-28.058 28.058 0.41 15.36 12.698 27.648 28.058 28.058 15.36-0.41 27.648-12.698 28.058-28.058-1.843-16.794-13.107-28.058-28.058-28.058zM371.712 188.518h-52.429c-11.264 0-18.637-7.578-18.637-18.637s7.578-18.637 18.637-18.637h52.429c11.264 0 18.637 7.578 18.637 18.637 0.205 10.24-8.192 18.637-18.637 18.637zM755.917 836.71h-104.858l-26.419 50.586c-3.686 7.578-9.421 11.264-16.794 11.264h-209.92c-7.578 0-13.107-3.686-16.794-11.264l-26.214-52.429h-86.221c-57.754 0-104.858-46.694-104.858-104.653 0-0.205 0-0.205 0-0.41v-627.507c0-11.264 7.578-18.637 18.637-18.637h74.957l-63.693-50.586c-7.578-5.53-9.421-18.637-3.686-26.214s18.637-9.421 26.214-3.686l103.014 80.486h385.843l103.014-80.486c7.578-5.53 20.685-5.53 26.214 3.686 5.53 7.578 5.53 20.685-3.686 26.214l-65.536 50.586h74.957c11.264 0 18.637 7.578 18.637 18.637v629.555c2.048 56.115-44.851 104.858-102.81 104.858zM411.034 861.082h185.549l13.107-24.371h-211.763l13.107 24.371zM268.698 799.232h485.171c37.069 0.205 67.379-29.696 67.379-66.97 0-0.205 0-0.41 0-0.614v-247.194h-619.93v247.398c0 35.635 29.901 67.379 67.379 67.379zM201.318 121.139v326.042h620.134v-323.994h-620.134v-2.048z" />
<glyph unicode="&#xe936;" glyph-name="MetroIDF" d="M514.662-1.741c-119.398 0-231.629 46.49-316.211 130.867s-130.867 196.813-130.867 316.211 46.49 231.629 130.867 316.211 196.813 130.867 316.211 130.867 231.629-46.49 316.211-130.867 130.867-196.813 130.867-316.211-46.49-231.629-130.867-316.211-196.813-130.867-316.211-130.867zM514.662 820.736c-207.053 0-375.398-168.346-375.398-375.398s168.346-375.398 375.398-375.398c207.053 0 375.398 168.346 375.398 375.398s-168.346 375.398-375.398 375.398zM690.758 597.74v-323.994h-59.187v198.861c0 4.096 0.205 8.602 0.41 13.312s0.614 9.626 1.229 14.541l-92.57-175.718c-5.12-9.626-12.902-14.541-23.347-14.541h-9.421c-5.12 0-9.83 1.229-13.926 3.686s-7.168 6.144-9.626 10.854l-93.184 176.333c0.41-5.12 0.819-10.24 1.024-15.155s0.41-9.421 0.41-13.517v-198.861h-59.187v323.994h50.995c2.867 0 5.325 0 7.578-0.205s4.301-0.614 5.939-1.229c1.638-0.614 3.277-1.638 4.71-3.072s2.867-3.482 4.096-5.939l90.726-172.851c2.867-5.12 5.53-10.65 7.987-15.974 2.458-5.53 4.71-11.264 6.963-16.998 2.253 5.939 4.506 11.674 6.963 17.408s5.12 11.059 7.987 16.384l89.907 172.032c1.434 2.458 2.662 4.506 4.301 5.939 1.434 1.434 3.072 2.458 4.71 3.072s3.686 1.024 5.734 1.229c2.253 0.205 4.71 0.205 7.782 0.205h50.995z" />
<glyph unicode="&#xe937;" glyph-name="MobileNetwork" d="M636.314 636.416h-249.037c-29.491 0-53.453-23.962-53.453-53.453v-462.643c0-29.491 23.962-53.453 53.453-53.453h249.037c29.491 0 53.453 23.962 53.453 53.453v462.848c0 29.491-23.962 53.248-53.453 53.248zM511.795 102.707c-19.661 0-35.635 15.974-35.635 35.635s15.974 35.635 35.635 35.635c19.661 0 35.635-15.974 35.635-35.635 0 0 0 0 0 0 0-19.866-15.974-35.635-35.635-35.635 0 0 0 0 0 0zM636.314 222.72c0-7.373-5.939-13.312-13.312-13.312h-222.413c-7.373 0-13.312 5.939-13.312 13.312v346.931c0 7.373 5.939 13.312 13.312 13.312h222.413c7.373 0 13.312-5.939 13.312-13.312v-346.931zM683.008 691.302c27.648-7.168 49.357-28.877 56.525-56.525 2.048-7.987-2.662-15.974-10.65-18.022-1.024-0.205-2.253-0.41-3.482-0.41l-10.24-0.205c-6.554-0.205-12.493 4.096-14.541 10.65-3.891 12.493-13.517 22.118-26.010 26.010-6.349 1.843-10.65 7.782-10.65 14.541l0.205 10.24c0.205 8.192 6.963 14.746 15.155 14.541 1.434-0.41 2.662-0.614 3.686-0.819zM683.622 850.432c114.483-9.83 205.21-100.762 215.245-215.245 0.614-8.192-5.325-15.36-13.517-15.974-0.41 0-0.614 0-1.024 0l-9.83-0.205c-7.782-0.205-14.336 5.734-15.155 13.517-8.602 94.822-83.763 170.189-178.586 178.586-7.782 0.614-13.517 7.373-13.517 15.155l0.205 9.83c0.205 8.192 6.963 14.746 15.155 14.541 0.41-0.205 0.614-0.205 1.024-0.205zM682.598 771.379c71.68-8.806 128.205-65.331 137.011-137.011 1.024-8.192-4.71-15.565-12.902-16.589-0.41 0-1.024 0-1.434-0.205l-9.83-0.205c-7.578-0.205-13.926 5.325-14.95 12.698-6.963 53.043-48.742 94.822-101.786 101.786-7.373 1.024-12.902 7.373-12.698 14.95l0.205 9.83c0.205 8.192 6.963 14.746 15.155 14.541 0.205 0.205 0.819 0.205 1.229 0.205z" />
<glyph unicode="&#xe938;" glyph-name="More" d="M389.12 448c0-22.622-18.338-40.96-40.96-40.96s-40.96 18.338-40.96 40.96c0 22.622 18.338 40.96 40.96 40.96s40.96-18.338 40.96-40.96zM552.96 448c0-22.622-18.338-40.96-40.96-40.96s-40.96 18.338-40.96 40.96c0 22.622 18.338 40.96 40.96 40.96s40.96-18.338 40.96-40.96zM716.8 448c0-22.622-18.338-40.96-40.96-40.96s-40.96 18.338-40.96 40.96c0 22.622 18.338 40.96 40.96 40.96s40.96-18.338 40.96-40.96z" />
<glyph unicode="&#xe939;" glyph-name="Musique" d="M414.925 613.157c-8.397 0-16.384 5.325-19.251 13.722-0.819 2.253-1.229 4.506-1.229 6.758 0 8.397 5.325 16.384 13.722 19.251l356.762 124.518c10.65 3.686 22.323-1.843 26.010-12.493 0.819-2.253 1.229-4.506 1.229-6.758 0-8.397-5.325-16.384-13.722-19.251l-356.762-124.518c-2.253-0.819-4.506-1.229-6.758-1.229zM394.445 634.456h40.96v-426.394h-40.96v426.394zM750.797 761.432h40.96v-426.394h-40.96v426.394zM436.224 208.267c0-40.719-45.846-73.728-102.4-73.728s-102.4 33.009-102.4 73.728c0 40.719 45.846 73.728 102.4 73.728s102.4-33.009 102.4-73.728zM792.576 335.243c0-40.719-45.846-73.728-102.4-73.728s-102.4 33.009-102.4 73.728c0 40.719 45.846 73.728 102.4 73.728s102.4-33.009 102.4-73.728z" />
<glyph unicode="&#xe93a;" glyph-name="Notif" d="M820.838 58.061h-611.533c-47.104 0-72.704 21.914-85.606 40.55-26.010 36.864-22.323 86.835-10.24 121.446 24.371 69.222 58.982 100.762 84.173 123.904 23.757 21.914 32.768 29.901 32.768 63.488v229.376c0 97.69 43.213 173.466 124.928 219.341 73.318 40.96 151.142 42.189 159.744 42.189s86.426-1.229 159.744-42.189c81.715-45.67 124.928-121.446 124.928-219.341v-229.581c0-33.587 8.806-41.779 32.768-63.488 25.19-23.142 59.597-54.682 84.173-123.904 12.288-34.406 15.974-84.378-10.24-121.446-12.902-18.432-38.502-40.346-85.606-40.346zM515.072 812.954c-2.458 0-62.669-0.41-118.17-31.334-54.682-30.515-81.306-77.824-81.306-144.794v-229.581c0-71.066-32.154-100.352-60.416-126.362-21.709-19.866-44.032-40.346-61.44-89.498-5.53-15.77-5.939-36.25-0.614-43.622 2.662-3.891 11.264-4.301 15.974-4.301h611.533c4.71 0 13.312 0.614 15.974 4.301 5.325 7.373 4.915 27.853-0.614 43.622-17.408 49.152-39.731 69.632-61.44 89.498-28.262 26.010-60.416 55.296-60.416 126.362v229.581c0 66.765-26.624 114.278-81.306 144.794-55.091 31.13-115.302 31.334-117.76 31.334zM516.71-61.542c-94.003 0-130.662 74.547-137.011 113.869l84.378 13.312v0.614c0-0.205 2.458-12.493 10.854-23.757 9.626-12.698 22.938-18.637 41.984-18.637 24.371 0 34.406 10.035 39.731 17.818 7.782 10.854 9.626 22.938 9.626 23.142v-0.614l84.787-10.035c-0.614-4.915-4.301-30.72-21.504-57.139-24.781-37.888-64.717-58.573-112.845-58.573z" />
</font>
</defs>
</svg>
