<?xml version="1.0" standalone="no"?>
<!DOCTYPE svg PUBLIC "-//W3C//DTD SVG 1.1//EN" "http://www.w3.org/Graphics/SVG/1.1/DTD/svg11.dtd" >
<svg xmlns="http://www.w3.org/2000/svg">
<metadata>Generated by IcoMoon</metadata>
<defs>
<font id="BDV" horiz-adv-x="1024">
<font-face units-per-em="1024" ascent="960" descent="-64" />
<missing-glyph horiz-adv-x="1024" />
<glyph unicode="&#x20;" horiz-adv-x="512" d="" />
<glyph unicode="&#xe900;" glyph-name="Add" d="M505.037-25.293c-35.43 0-64.102 28.672-64.102 64.102v837.018c0 35.43 28.672 64.102 64.102 64.102s64.102-28.672 64.102-64.102v-837.018c0-35.43-28.672-64.102-64.102-64.102zM929.587 393.114h-835.174c-35.43 0-64.102 28.672-64.102 64.102s28.672 64.102 64.102 64.102h835.174c35.43 0 64.102-28.672 64.102-64.102s-28.672-64.102-64.102-64.102z" />
<glyph unicode="&#xe901;" glyph-name="AddAd" d="M750.592-47.411c-144.998 0-262.963 117.965-262.963 262.963s117.965 262.963 262.963 262.963 262.963-117.965 262.963-262.963c0-144.998-117.965-262.963-262.963-262.963zM750.592 418.714c-112.026 0-203.162-91.136-203.162-203.162s91.136-203.162 203.162-203.162 203.162 91.136 203.162 203.162-91.136 203.162-203.162 203.162zM416.768 160.256h-371.302c-16.589 0-29.901 13.312-29.901 29.901v480.666c0 8.397 3.482 16.384 9.626 22.118l268.902 245.965c11.264 10.24 28.262 10.445 39.731 0.614l291.635-251.904c6.554-5.734 10.445-13.926 10.445-22.528v-148.89c0-16.589-13.312-29.901-29.901-29.901s-29.901 13.312-29.901 29.901v135.168l-261.325 225.485-239.616-219.136v-437.658h341.402c16.589 0 29.901-13.312 29.901-29.901s-13.312-29.901-29.696-29.901zM862.618 173.363h-223.027c-16.589 0-29.901 13.312-29.901 29.901s13.312 29.901 29.901 29.901h223.027c16.589 0 29.901-13.312 29.901-29.901s-13.312-29.901-29.901-29.901zM751.206 60.314c-16.589 0-29.901 13.312-29.901 29.901v226.099c0 16.589 13.312 29.901 29.901 29.901s29.901-13.312 29.901-29.901v-226.099c-0.205-16.589-13.517-29.901-29.901-29.901z" />
<glyph unicode="&#xe902;" glyph-name="AddAgency" d="M750.592-47.411c-144.998 0-262.963 117.965-262.963 262.963s117.965 262.963 262.963 262.963 262.963-117.965 262.963-262.963c0-144.998-117.965-262.963-262.963-262.963zM750.592 418.714c-112.026 0-203.162-91.136-203.162-203.162s91.136-203.162 203.162-203.162 203.162 91.136 203.162 203.162-91.136 203.162-203.162 203.162zM862.618 185.651h-223.027c-16.589 0-29.901 13.312-29.901 29.901s13.312 29.901 29.901 29.901h223.027c16.589 0 29.901-13.312 29.901-29.901s-13.312-29.901-29.901-29.901zM751.206 72.602c-16.589 0-29.901 13.312-29.901 29.901v226.099c0 16.589 13.312 29.901 29.901 29.901s29.901-13.312 29.901-29.901v-226.099c-0.205-16.589-13.517-29.901-29.901-29.901zM679.936 513.536c-48.333 0-78.643 16.998-97.075 35.226-16.794-18.432-44.442-35.226-90.317-35.226-48.947 0-81.715 19.661-102.4 43.008-20.685-23.142-52.019-43.008-96.461-43.008-42.598 0-71.27 17.613-89.702 39.526-18.842-20.685-46.899-37.478-85.811-37.478-46.694 0-80.282 14.336-100.147 42.394-29.901 42.189-13.722 96.87-10.24 107.315l38.707 143.565c3.482 13.107 15.36 22.118 28.877 22.118h610.509c12.902 0 24.166-8.192 28.262-20.275l46.080-136.397c7.168-14.336 35.226-75.571 8.397-120.422-11.059-18.227-35.43-40.346-88.678-40.346zM610.304 620.237c1.024-8.397 9.011-46.899 69.632-46.899 11.469 0 31.334 1.434 37.274 11.469 8.602 14.541-2.867 48.742-10.854 63.898-0.819 1.434-1.434 3.072-2.048 4.506l-39.936 118.374h-566.272l-32.973-122.47c-0.205-0.819-0.41-1.434-0.614-2.253-3.072-8.806-9.216-38.093 2.458-54.272 10.035-14.131 33.382-16.998 51.405-16.998 19.661 0 34.816 7.782 46.49 23.757 9.011 12.288 12.288 25.19 12.288 25.395 3.277 14.131 16.179 24.166 30.72 23.552 14.541-0.819 26.214-11.469 28.058-25.805 0.205-1.434 2.662-14.336 11.059-26.419 10.445-14.95 26.010-22.323 47.104-22.323 22.938 0 40.755 8.397 54.477 25.805 10.24 12.902 14.336 26.214 14.336 26.419 3.686 13.517 16.179 23.142 30.31 22.323 13.926-0.819 25.6-10.65 27.853-24.576 0.41-1.638 3.482-14.131 13.517-26.214 13.107-15.974 32.973-23.962 58.778-23.962 24.576 0 40.96 6.963 50.176 21.094 6.758 10.65 7.782 22.118 7.782 23.757-0.205 16.179 12.493 29.901 28.672 30.515 15.77 0.205 29.491-12.288 30.31-28.672zM36.25 656.691v0 0zM450.97 134.861h-367.821c-16.589 0-29.901 13.312-29.901 29.901v363.11c0 16.589 13.312 29.901 29.901 29.901s29.901-13.312 29.901-29.901v-333.21h337.92c16.589 0 29.901-13.312 29.901-29.901s-13.312-29.901-29.901-29.901zM702.464 483.635c-16.589 0-29.901 13.312-29.901 29.901 0 16.179 1.229 21.914 2.458 25.805 5.12 15.77 22.118 24.166 37.683 19.046 14.541-4.71 22.938-19.661 19.866-34.406 0-1.024-0.41-4.096-0.41-10.445 0.205-16.589-13.107-29.901-29.696-29.901zM731.75 520.704c0 0 0 0 0 0s0 0 0 0zM731.75 520.704c0 0 0 0 0 0s0 0 0 0zM731.75 520.704c0 0 0 0 0 0s0 0 0 0zM731.75 520.704c0 0 0 0 0 0s0 0 0 0zM732.774 524.186v0 0zM186.368 783.053c-16.589 0-29.901 13.312-29.901 29.901v121.037c0.205 16.589 13.517 29.901 29.901 29.901h396.083c16.589 0 29.901-13.312 29.901-29.901v-119.194c0-16.589-13.312-29.901-29.901-29.901s-29.901 13.312-29.901 29.901v89.293h-336.282v-91.136c0-16.589-13.312-29.901-29.901-29.901zM389.325 273.51h-212.582c-16.589 0-29.901 13.312-29.901 29.901v146.432c0 16.589 13.312 29.901 29.901 29.901h212.582c16.589 0 29.901-13.312 29.901-29.901v-146.432c0-16.589-13.312-29.901-29.901-29.901zM206.643 333.312h152.986v86.63h-152.986v-86.63zM485.376 330.035c-16.589 0-29.901 13.312-29.901 29.901 0 57.549-0.41 89.088-0.41 89.498-0.205 7.987 2.867 15.565 8.602 21.299 5.53 5.734 13.107 9.011 21.094 9.011 0.41 0 32.358 0.205 70.246 0.205 16.589 0 29.901-13.312 29.901-29.901s-13.312-29.901-29.901-29.901c-14.746 0-28.467 0-39.936 0 0-14.95 0.205-35.226 0.205-60.211 0-16.589-13.312-29.901-29.901-29.901z" />
<glyph unicode="&#xe903;" glyph-name="AddUser" d="M446.259 129.331h-415.744c-8.192 0-15.974 3.277-21.709 9.216s-8.602 13.926-8.192 22.118c0 1.843 2.458 43.827 11.674 91.136 13.517 69.837 34.611 113.459 64.307 133.325 46.899 31.334 164.659 54.272 218.112 63.283v52.429c-10.035 5.12-22.528 12.902-35.021 23.347-30.31 25.6-48.947 58.163-54.477 95.027-1.638 0.41-3.482 0.819-5.325 1.434-5.12 1.434-9.626 4.096-13.312 7.782-4.71 4.71-14.336 14.336-20.275 66.355-2.662 22.528-4.301 53.043 2.048 69.632 3.891 10.035 12.698 17.203 23.142 18.842-3.482 19.046-6.963 41.574-6.963 56.934 0 26.419 14.131 49.152 36.045 57.958 6.554 2.662 19.866 6.349 35.84 1.434 9.421 10.65 23.347 21.299 43.418 30.72 73.523 34.202 202.342 38.502 255.386 8.397 2.662-1.434 4.915-3.277 6.963-5.53 22.323-23.757 30.72-62.259 24.986-114.688-1.229-11.264-3.072-22.118-4.915-31.539 4.301-1.434 8.806-3.482 13.107-5.939 3.891-2.253 7.373-5.53 9.83-9.421 6.144-9.421 9.421-19.456 1.229-71.885-2.458-15.77-8.397-48.742-13.107-61.030-3.686-9.83-12.288-16.998-22.528-18.842-4.301-0.819-8.806-1.434-13.107-2.048-6.144-48.333-29.491-88.064-67.379-114.893 0-21.504 0-39.936 0.205-53.658 14.541-1.843 27.648-3.686 40.346-5.53 16.384-2.458 27.648-17.613 25.19-33.997s-17.613-27.443-33.997-25.19c-19.046 2.867-39.322 5.53-64.307 8.397v0c-10.24 1.229-26.214 8.806-26.624 30.925 0 1.229 0 3.072 0 5.53 0 4.71-0.205 11.674-0.205 20.48-0.205 15.565-0.205 40.346-0.205 69.632 0 10.035 5.12 19.251 13.517 24.781 0.819 0.41 2.048 1.229 3.482 2.253 34.611 20.070 52.019 53.043 52.019 98.099 0 15.77 12.288 28.672 27.853 29.901 1.843 0.205 7.168 0.614 13.926 1.434 3.277 16.179 7.373 39.936 9.216 56.32-0.819 0-1.638 0-2.048 0-10.035-1.024-19.866 3.072-26.214 10.854s-8.397 18.227-5.53 27.853c10.854 35.635 19.251 95.642 4.506 118.17-37.683 16.589-139.059 13.926-196.403-12.698-19.251-9.011-27.238-18.022-28.262-23.552-2.048-11.059-10.035-19.866-20.685-23.142s-22.323-0.205-30.106 7.782c-0.614 0.614-1.229 1.229-1.843 1.843 0.41-17.408 7.782-56.115 12.698-77.005 2.048-8.602 0-17.818-5.325-24.986s-13.722-11.264-22.733-11.674c0 0-1.843 0-4.915-0.205 0.614-15.974 3.072-37.478 6.144-50.586 2.048-0.41 3.686-0.819 5.12-1.024 5.325-1.024 11.674-2.253 17.613-7.578 6.758-5.734 10.65-14.131 10.65-22.938 0-69.427 68.198-94.003 71.066-95.027 12.083-4.096 20.275-15.36 20.275-28.262v-97.28c0-14.746-10.854-27.443-25.395-29.491-65.946-9.83-183.91-34.406-219.341-57.958-5.53-3.686-24.576-21.504-38.912-95.027-3.686-18.842-6.144-36.864-7.782-51.405h382.976c16.589 0 29.901-13.312 29.901-29.901s-13.312-29.696-29.901-29.696zM750.592-47.411c-144.998 0-262.963 117.965-262.963 262.963s117.965 262.963 262.963 262.963 262.963-117.965 262.963-262.963c0-144.998-117.965-262.963-262.963-262.963zM750.592 418.714c-112.026 0-203.162-91.136-203.162-203.162s91.136-203.162 203.162-203.162 203.162 91.136 203.162 203.162-91.136 203.162-203.162 203.162zM862.618 185.651h-223.027c-16.589 0-29.901 13.312-29.901 29.901s13.312 29.901 29.901 29.901h223.027c16.589 0 29.901-13.312 29.901-29.901s-13.312-29.901-29.901-29.901zM751.206 72.602c-16.589 0-29.901 13.312-29.901 29.901v226.099c0 16.589 13.312 29.901 29.901 29.901s29.901-13.312 29.901-29.901v-226.304c-0.205-16.384-13.517-29.696-29.901-29.696z" />
<glyph unicode="&#xe904;" glyph-name="Annexes" d="M513.638-39.014c-130.867 0-253.747 50.79-346.317 143.155s-143.36 215.245-143.36 345.907c0 130.662 50.995 253.542 143.36 345.907 92.57 92.365 215.45 143.155 346.317 143.155s253.747-50.79 346.317-143.155c92.57-92.365 143.36-215.245 143.36-345.907s-50.995-253.542-143.36-345.907c-92.57-92.365-215.654-143.155-346.317-143.155zM513.638 853.914c-223.027 0-404.48-181.248-404.48-403.866s181.453-403.866 404.275-403.866c223.027 0 404.275 181.043 404.275 403.866s-181.248 403.866-404.070 403.866zM728.474 407.45h-427.827c-23.552 0-42.598 19.046-42.598 42.598s19.046 42.598 42.598 42.598h427.827c23.552 0 42.598-19.046 42.598-42.598s-19.046-42.598-42.598-42.598zM514.662 190.771c-23.552 0-42.598 19.046-42.598 42.598v433.357c0 23.552 19.046 42.598 42.598 42.598s42.598-19.046 42.598-42.598v-433.357c0-23.552-19.046-42.598-42.598-42.598z" />
<glyph unicode="&#xe905;" glyph-name="Appartement" d="M811.008-43.11c-0.205 0-0.205 0-0.41 0l-593.92 5.53c-23.347 0.205-42.189 19.251-42.189 42.598v894.771c0 23.552 19.046 42.598 42.598 42.598l593.92 0.819c11.264 0 22.118-4.506 30.106-12.493s12.493-18.842 12.493-30.106v-901.12c0-11.469-4.506-22.323-12.698-30.31-7.782-7.987-18.637-12.288-29.901-12.288zM259.686 47.411l508.518-4.71v815.104l-508.518-0.819v-809.574zM450.97 449.434h-89.702c-17.408 0-31.539 14.131-31.539 31.539v89.702c0 17.408 14.131 31.539 31.539 31.539h89.702c17.408 0 31.539-14.131 31.539-31.539v-89.702c0-17.203-14.131-31.539-31.539-31.539zM372.326 492.237h67.584v67.379h-67.584v-67.379zM450.97 559.616v0 0zM450.97 665.498h-89.702c-17.408 0-31.539 14.131-31.539 31.539v89.702c0 17.408 14.131 31.539 31.539 31.539h89.702c17.408 0 31.539-14.131 31.539-31.539v-89.702c0-17.408-14.131-31.539-31.539-31.539zM372.326 708.301h67.584v67.379h-67.584v-67.379zM450.97 775.68v0 0zM450.97 231.322h-89.702c-17.408 0-31.539 14.131-31.539 31.539v89.702c0 17.408 14.131 31.539 31.539 31.539h89.702c17.408 0 31.539-14.131 31.539-31.539v-89.702c0-17.203-14.131-31.539-31.539-31.539zM372.326 274.125h67.584v67.379h-67.584v-67.379zM450.97 341.504v0 0zM666.010 449.434h-89.702c-17.408 0-31.539 14.131-31.539 31.539v89.702c0 17.408 14.131 31.539 31.539 31.539h89.702c17.408 0 31.539-14.131 31.539-31.539v-89.702c0-17.203-14.131-31.539-31.539-31.539zM587.366 492.237h67.584v67.379h-67.584v-67.379zM666.010 559.616v0 0zM666.010 665.498h-89.702c-17.408 0-31.539 14.131-31.539 31.539v89.702c0 17.408 14.131 31.539 31.539 31.539h89.702c17.408 0 31.539-14.131 31.539-31.539v-89.702c0-17.408-14.131-31.539-31.539-31.539zM587.366 708.301h67.584v67.379h-67.584v-67.379zM666.010 775.68v0 0zM666.010 231.322h-89.702c-17.408 0-31.539 14.131-31.539 31.539v89.702c0 17.408 14.131 31.539 31.539 31.539h89.702c17.408 0 31.539-14.131 31.539-31.539v-89.702c0-17.203-14.131-31.539-31.539-31.539zM587.366 274.125h67.584v67.379h-67.584v-67.379zM666.010 341.504v0 0zM450.97 12.186h-89.702c-17.408 0-31.539 14.131-31.539 31.539v89.702c0 17.408 14.131 31.539 31.539 31.539h89.702c17.408 0 31.539-14.131 31.539-31.539v-89.702c0-17.203-14.131-31.539-31.539-31.539zM372.326 54.989h67.584v67.379h-67.584v-67.379zM450.97 122.368v0 0zM666.010 12.186h-89.702c-17.408 0-31.539 14.131-31.539 31.539v89.702c0 17.408 14.131 31.539 31.539 31.539h89.702c17.408 0 31.539-14.131 31.539-31.539v-89.702c0-17.203-14.131-31.539-31.539-31.539zM587.366 54.989h67.584v67.379h-67.584v-67.379zM666.010 122.368v0 0zM61.44-0.512h901.12zM962.56-43.11h-901.12c-23.552 0-42.598 19.046-42.598 42.598s19.046 42.598 42.598 42.598h901.12c23.552 0 42.598-19.046 42.598-42.598s-19.046-42.598-42.598-42.598z" />
<glyph unicode="&#xe906;" glyph-name="ArrowDown" d="M514.048 204.288c-9.83 0-19.866 3.482-27.853 10.24l-467.354 402.227c-17.818 15.36-19.866 42.189-4.506 60.006s42.394 19.866 60.211 4.506l439.501-377.856 439.501 378.061c17.818 15.36 44.851 13.312 60.211-4.506s13.312-44.851-4.506-60.211l-467.354-402.022c-7.987-6.963-18.022-10.445-27.853-10.445z" />
<glyph unicode="&#xe907;" glyph-name="ArrowLeft" d="M715.162-61.952c-12.083 0-23.962 5.12-32.358 14.746l-402.022 467.354c-13.722 15.974-13.722 39.731 0 55.706l402.022 467.354c15.36 17.818 42.394 19.866 60.211 4.506s19.866-42.394 4.506-60.211l-378.061-439.501 378.061-439.501c15.36-17.818 13.312-44.851-4.506-60.211-8.192-6.758-18.022-10.24-27.853-10.24z" />
<glyph unicode="&#xe908;" glyph-name="ArrowRight" d="M313.139-61.952c-9.83 0-19.661 3.482-27.853 10.24-17.818 15.36-19.866 42.394-4.506 60.211l377.856 439.501-377.856 439.501c-15.36 17.818-13.312 44.851 4.506 60.211s44.851 13.312 60.211-4.506l402.022-467.149c13.722-15.974 13.722-39.731 0-55.706l-402.022-467.354c-8.602-9.83-20.48-14.95-32.358-14.95z" />
<glyph unicode="&#xe909;" glyph-name="ArrowUp" d="M980.992 204.698c-9.83 0-19.661 3.482-27.853 10.24l-439.091 377.446-439.091-377.446c-17.818-15.36-44.851-13.312-60.211 4.506s-13.312 44.851 4.506 60.211l466.944 401.408c15.974 13.722 39.731 13.722 55.706 0l466.944-401.408c17.818-15.36 19.866-42.394 4.506-60.211-8.397-9.83-20.275-14.746-32.358-14.746z" />
<glyph unicode="&#xe90a;" glyph-name="Bookmark" d="M246.784-43.11c-4.915 0-10.035 0.819-14.95 2.662-16.589 6.144-27.648 22.118-27.853 39.936l-1.638 888.627c0 11.264 4.506 22.118 12.493 30.31 7.987 7.987 18.842 12.493 30.106 12.493h568.525c23.552 0 42.598-19.046 42.598-42.598v-884.326c0-17.613-10.854-33.587-27.443-39.936s-35.226-1.843-46.899 11.264l-254.566 282.624-248.218-286.31c-8.192-9.421-20.070-14.746-32.154-14.746zM287.949 845.517l1.434-731.955 205.619 236.954c7.987 9.216 19.661 14.541 31.744 14.746 0.205 0 0.205 0 0.41 0 12.083 0 23.552-5.12 31.744-14.131l212.378-235.93v730.317h-483.328z" />
<glyph unicode="&#xe90b;" glyph-name="BookmarkFilled" d="M245.146 888.115h568.525v-884.326l-286.72 318.669-280.166-322.765-1.638 888.422zM246.784-43.11c-4.915 0-10.035 0.819-14.95 2.662-16.589 6.144-27.648 22.118-27.853 39.936l-1.638 888.627c0 11.264 4.506 22.118 12.493 30.31 7.987 7.987 18.842 12.493 30.106 12.493h568.525c23.552 0 42.598-19.046 42.598-42.598v-884.326c0-17.613-10.854-33.587-27.443-39.936s-35.226-1.843-46.899 11.264l-254.566 282.624-248.218-286.31c-8.192-9.421-20.070-14.746-32.154-14.746zM287.949 845.517l1.434-731.955 205.619 236.954c7.987 9.216 19.661 14.541 31.744 14.746 0.205 0 0.205 0 0.41 0 12.083 0 23.552-5.12 31.744-14.131l212.378-235.93v730.317h-483.328z" />
<glyph unicode="&#xe90c;" glyph-name="Budget" d="M696.934 299.11c7.373-9.421 11.059-20.89 11.059-34.202 0-8.806-1.638-16.384-4.915-23.142s-8.602-12.902-15.77-18.432c-45.261-36.864-96.256-55.296-153.19-55.296-51.814 0-95.027 15.974-129.638 48.128-34.611 31.949-57.958 77.414-69.632 135.782h-42.394c-10.24 0-19.046 3.482-26.214 10.445s-10.854 15.155-10.854 24.986c0 9.83 3.686 18.022 10.854 24.986s15.974 10.445 26.214 10.445h33.792c-0.614 5.12-0.819 13.107-0.819 23.757s0.205 18.637 0.819 23.757h-33.792c-10.24 0-19.046 3.482-26.214 10.445s-10.854 15.155-10.854 24.986c0 9.83 3.686 18.022 10.854 24.986s15.974 10.445 26.214 10.445h42.394c11.878 58.573 35.021 103.629 69.632 135.373s77.824 47.718 129.638 47.718c53.862 0 104.858-18.432 153.19-55.296 7.168-5.734 12.493-11.469 15.77-17.613s4.915-14.131 4.915-23.757c0-13.312-3.686-24.781-11.059-34.202s-16.589-14.131-27.238-14.131c-6.758 0-12.493 0.819-17.613 2.662s-11.469 5.325-19.251 10.445c-18.432 12.902-35.226 22.118-49.971 28.058-14.95 5.939-29.082 8.806-42.394 8.806-23.552 0-42.598-6.963-56.934-21.094s-24.986-36.25-31.539-66.56h88.474c10.24 0 18.842-3.277 25.805-10.035s10.445-15.155 10.445-25.395c0-10.24-3.482-18.637-10.445-25.395s-15.565-10.035-25.805-10.035h-96.256v-47.514h96.256c10.24 0 18.842-3.277 25.805-10.035s10.445-15.155 10.445-25.395c0-10.24-3.482-18.637-10.445-25.395s-15.565-10.035-25.805-10.035h-88.474c6.758-30.72 17.203-53.248 31.539-67.379s33.382-21.094 56.934-21.094c13.312 0 27.238 2.867 41.984 8.806 14.541 5.939 31.334 15.155 50.381 28.058 7.782 5.12 14.131 8.602 19.251 10.445s11.059 2.662 17.613 2.662c10.65-0.41 19.866-5.12 27.238-14.746zM513.024-59.494c-135.373 0-262.554 52.838-358.195 148.685s-148.275 223.232-148.275 358.81 52.634 262.963 148.275 358.81c95.642 95.846 222.822 148.685 358.195 148.685s262.554-52.838 358.195-148.685c95.642-95.846 148.275-223.232 148.275-358.81s-52.634-262.963-148.275-358.81c-95.642-95.846-222.822-148.685-358.195-148.685zM513.024 870.298c-232.243 0-421.274-189.44-421.274-422.298s189.030-422.298 421.274-422.298c232.243 0 421.274 189.44 421.274 422.298s-189.030 422.298-421.274 422.298z" />
<glyph unicode="&#xe90d;" glyph-name="Building" d="M473.088-59.085c-1.434 0-2.867 0-4.301 0.41-16.384 2.458-27.648 17.613-25.19 33.792l137.216 942.080c2.458 16.384 17.613 27.648 33.792 25.19 16.384-2.458 27.648-17.613 25.19-33.792l-137.216-942.080c-2.048-14.95-14.95-25.6-29.491-25.6zM900.71-21.197v0l-480.87 0.614c-23.552 0-42.598 19.251-42.598 42.803s19.046 42.598 42.598 42.598v0l438.272-0.614v416.563l-282.419 222.413c-18.432 14.541-21.709 41.37-7.168 60.006 14.541 18.432 41.37 21.709 60.006 7.168l298.598-235.315c10.24-8.192 16.179-20.48 16.179-33.587v-480.256c0-11.264-4.506-22.118-12.493-30.106-7.782-7.987-18.637-12.288-30.106-12.288zM129.229-21.402c-11.264 0-22.118 4.506-30.106 12.493s-12.493 18.842-12.493 30.31v845.824c0 23.552 19.046 42.598 42.598 42.598l452.403 0.614c23.552 0 42.598-19.046 42.598-42.598s-19.046-42.803-42.598-42.803l-409.6-0.614v-760.422l264.192 0.819c0 0 0 0 0.205 0 23.552 0 42.598-19.046 42.598-42.598s-19.046-42.803-42.598-42.803l-307.2-0.819c0.205 0 0.205 0 0 0zM391.578 359.322h-89.702c-17.408 0-31.539 14.131-31.539 31.539v89.702c0 17.408 14.131 31.539 31.539 31.539h89.702c17.408 0 31.539-14.131 31.539-31.539v-89.702c0-17.203-14.131-31.539-31.539-31.539zM312.934 402.125h67.584v67.379h-67.584v-67.379zM391.578 469.504v0 0zM752.026 291.738h-89.702c-17.408 0-31.539 14.131-31.539 31.539v89.702c0 17.408 14.131 31.539 31.539 31.539h89.702c17.408 0 31.539-14.131 31.539-31.539v-89.702c0-17.203-14.131-31.539-31.539-31.539zM673.382 334.541h67.584v67.379h-67.584v-67.379zM752.026 401.92v0 0zM391.578 575.386h-89.702c-17.408 0-31.539 14.131-31.539 31.539v89.702c0 17.408 14.131 31.539 31.539 31.539h89.702c17.408 0 31.539-14.131 31.539-31.539v-89.702c0-17.408-14.131-31.539-31.539-31.539zM312.934 618.189h67.584v67.379h-67.584v-67.379zM391.578 685.568v0 0zM391.578 141.21h-89.702c-17.408 0-31.539 14.131-31.539 31.539v89.702c0 17.408 14.131 31.539 31.539 31.539h89.702c17.408 0 31.539-14.131 31.539-31.539v-89.702c0-17.203-14.131-31.539-31.539-31.539zM312.934 184.013h67.584v67.379h-67.584v-67.379zM391.578 251.392v0 0zM786.432 550.605c-23.142 0-42.189 18.637-42.598 41.984l-2.048 114.688c-0.41 23.552 18.432 43.008 41.984 43.418s43.008-18.432 43.418-41.984l2.048-114.688c0.41-23.552-18.432-43.008-41.984-43.418-0.41 0-0.614 0-0.819 0zM962.56-22.63h-901.12c-23.552 0-42.598 19.046-42.598 42.598s19.046 42.598 42.598 42.598h901.12c23.552 0 42.598-19.046 42.598-42.598s-19.046-42.598-42.598-42.598z" />
<glyph unicode="&#xe90e;" glyph-name="BusinessTax" d="M580.813 642.765c-7.373 0-14.746 2.662-20.685 8.192-11.878 11.469-12.493 30.31-1.024 42.189 2.458 2.662 49.562 52.019 92.16 94.618-1.229 0.41-2.458 0.819-3.686 1.434-9.011 3.277-18.022 6.758-25.805 9.626l-25.805-37.888c-8.806-13.107-26.214-16.998-39.936-9.011-13.517 7.987-18.637 25.19-11.469 39.322l47.309 93.184-138.445-1.843 49.766-92.774c7.373-13.926 2.867-31.13-10.65-39.526-13.312-8.397-30.925-4.71-40.141 7.987l-31.744 44.646c-10.24-5.939-19.046-10.854-26.624-15.155 46.49-39.936 90.522-90.522 92.774-93.184 10.854-12.493 9.421-31.334-2.867-42.189-12.493-10.854-31.334-9.421-42.189 2.867v0c-0.614 0.819-68.403 78.234-118.579 111.821-10.854 7.373-15.77 20.89-12.083 33.587 2.662 9.011 9.421 15.77 17.613 19.046 6.963 3.482 37.888 20.89 69.632 39.117l-20.89 38.912c-4.915 9.216-4.71 20.275 0.614 29.286s14.95 14.541 25.395 14.746l236.954 3.072c10.445 0 20.275-5.12 25.805-14.131 5.53-8.806 5.939-20.070 1.229-29.286l-23.757-47.104c31.334-11.674 60.826-22.528 68.403-24.781 5.939-1.024 11.674-4.096 16.179-8.806 11.264-11.878 10.854-30.72-1.024-42.189-45.261-43.418-123.904-125.747-124.723-126.566-5.939-6.144-13.722-9.216-21.709-9.216zM339.968 821.965c0 0 0 0 0 0s0 0 0 0zM339.968 821.965c0 0 0 0 0 0s0 0 0 0zM686.080 821.965c0 0 0 0 0 0s0 0 0 0zM695.296 827.904c-3.072-1.229-6.349-3.072-9.216-5.939 2.867 2.662 5.939 4.71 9.216 5.939zM627.507 560.64c0 0-0.205 0-0.205 0l-203.162 2.458c-7.373-0.819-28.877-1.843-45.056 12.493-8.192 7.168-17.818 20.685-16.998 44.442 0.819 24.781 11.264 38.093 19.866 44.851 15.155 12.083 33.178 11.469 40.141 10.65l205.21 2.253c4.506 0.205 24.986-0.205 40.55-14.95 7.373-6.963 16.179-19.866 16.179-41.37 0-41.165-32.563-58.778-54.272-60.826-1.024 0-1.638 0-2.253 0zM422.502 605.696c0.205 0 0.41 0 0.614 0l203.162-2.458c6.963 1.024 14.746 5.325 14.746 18.227 0 3.482-0.41 7.987-2.867 10.24-2.867 2.662-8.806 3.277-9.626 3.277-0.205 0-0.614 0-0.819 0l-207.053-2.253c-1.638 0-2.458 0-4.096 0.41-1.843 0.205-6.144 0.205-8.397-1.638-2.048-1.843-3.482-6.554-3.686-12.902-0.205-5.325 0.614-9.421 2.458-10.854 2.458-2.253 8.602-2.662 12.288-2.253 1.229 0.205 2.048 0.205 3.277 0.205zM203.981-51.712c-2.253 0-4.506 0.205-6.758 0.819-19.866 4.506-57.958 25.395-57.958 70.861 0 42.394 33.587 62.259 58.163 66.355l27.034 8.602c-2.458 74.342 0.205 149.299 7.987 223.027 10.854 100.352 88.678 167.117 145.408 215.654 21.094 18.227 43.008 36.864 48.128 47.309 7.373 14.746 25.19 20.89 39.936 13.722 14.746-7.373 20.89-25.19 13.722-39.936-10.65-21.504-33.792-41.37-62.874-66.355-52.019-44.442-116.736-99.942-124.928-176.742-8.397-78.438-10.65-158.106-6.758-236.749 0.614-13.517-7.782-25.805-20.685-29.901l-51.2-16.384c-2.253-0.819-3.482-1.024-5.939-1.229-8.192-1.229-8.192-5.325-8.192-7.373 0-7.168 5.939-10.445 9.421-11.878l656.179 2.253c5.325 2.662 7.782 8.602 7.578 18.227 0 4.096-0.205 9.216-7.578 10.445-0.614 0-0.41 0-1.434 0.205l-53.453 6.963c-15.36 2.048-26.624 15.36-26.010 30.925 0 1.638 6.758 157.901-11.264 258.253-9.626 53.862-72.909 103.219-123.699 142.746-44.237 34.406-75.981 59.392-81.101 89.907-2.662 16.179 8.397 31.539 24.576 34.202 15.974 2.662 31.334-8.192 34.202-23.962 4.096-10.445 35.84-35.021 58.982-53.043 58.778-45.875 132.096-103.014 145.818-179.405 14.746-81.51 14.131-192.922 12.902-243.917l26.010-3.482c24.576-2.253 60.416-22.118 61.645-68.608 1.229-53.043-36.454-74.752-56.525-78.643-1.843-0.41-3.891-0.614-5.734-0.614l-665.6-2.253c0.205 0 0 0 0 0zM416.973 311.808c-9.626 11.059-14.541 27.238-14.541 48.333 0 20.48 4.915 36.25 14.746 47.309s23.142 16.589 40.141 16.589c17.203 0 30.515-5.53 40.141-16.589s14.541-27.034 14.541-47.718c0-21.094-4.915-37.274-14.541-48.128-9.626-11.059-23.142-16.384-40.141-16.384-17.408 0-30.72 5.53-40.346 16.589zM470.63 331.878c2.867 5.53 4.096 14.95 4.096 28.058 0 12.493-1.434 21.709-4.301 27.443s-7.373 8.602-13.312 8.602-10.445-2.867-13.107-8.397c-2.867-5.53-4.096-14.746-4.096-27.443 0-12.902 1.434-22.323 4.096-28.058 2.867-5.734 7.168-8.602 13.107-8.602 6.144 0 10.65 2.662 13.517 8.397zM479.027 204.493c-4.096 0-7.782 1.638-10.854 4.71s-4.71 6.963-4.71 11.469c0 3.686 1.229 7.782 3.686 11.878l105.882 182.682c4.096 7.578 9.83 11.264 16.794 11.264 4.301 0 8.192-1.638 11.264-4.71s4.71-6.963 4.71-11.469c0-3.686-1.229-7.782-3.686-11.878l-105.882-182.682c-4.915-7.578-10.445-11.264-17.203-11.264zM571.187 224.563c-9.626 11.059-14.541 27.238-14.541 48.333 0 20.685 4.915 36.659 14.541 47.514 9.626 11.059 23.142 16.384 40.141 16.384s30.31-5.53 40.141-16.589c9.83-11.059 14.746-27.034 14.746-47.718 0-20.89-4.915-36.864-14.541-47.923s-23.142-16.589-40.141-16.589c-17.203 0-30.72 5.53-40.346 16.589zM624.845 244.429c2.867 5.53 4.096 14.95 4.096 28.058 0 12.698-1.434 21.914-4.301 27.648s-7.373 8.602-13.312 8.602-10.445-2.867-13.312-8.602c-2.867-5.734-4.301-14.95-4.301-27.648 0-13.107 1.434-22.528 4.096-28.058 2.867-5.53 7.373-8.397 13.517-8.397 6.349 0 10.65 2.867 13.517 8.397zM467.149 158.003c8.192-7.168 12.288-17.203 12.288-30.106 0-13.722-4.096-24.166-12.288-31.744s-19.661-11.264-34.406-11.264l-18.022-0.205v-30.72h-33.997v114.893h52.019c14.746-0.205 26.419-3.891 34.406-10.854zM442.982 114.995c2.867 2.662 4.096 6.758 4.096 11.878s-1.434 8.806-4.096 11.469c-2.867 2.662-6.758 4.096-11.878 4.096h-16.384v-31.539h16.384c5.12 0 9.011 1.434 11.878 4.096zM559.923 53.76l-15.155 30.925h-18.022v-30.925h-33.997v114.893h53.658c15.36 0 27.238-3.482 35.84-10.65 8.397-7.168 12.698-17.203 12.698-30.106 0-8.397-1.638-15.77-4.915-21.914s-8.192-11.059-14.336-14.746l23.347-37.478h-39.117zM526.541 110.899h19.456c5.12 0 9.011 1.434 11.878 4.096s4.096 6.758 4.096 11.878c0 5.12-1.434 8.806-4.096 11.469-2.867 2.662-6.758 4.096-11.878 4.096h-19.456v-31.539zM699.392 162.918c9.626-5.12 16.998-12.288 22.528-21.299s8.192-19.046 8.192-30.31c0-11.264-2.662-21.504-8.192-30.72-5.325-9.216-12.902-16.179-22.528-21.504-9.626-5.12-20.275-7.782-31.949-7.782-11.878 0-22.528 2.662-32.154 7.782-9.421 5.12-16.998 12.288-22.323 21.504s-8.192 19.456-8.192 30.72c0 11.264 2.662 21.299 8.192 30.31 5.325 9.011 12.902 16.179 22.323 21.299s20.275 7.782 32.154 7.782c11.674 0 22.323-2.662 31.949-7.782zM653.926 138.342c-4.301-2.662-7.782-6.554-10.24-11.264-2.662-4.71-3.891-10.035-3.891-15.77s1.229-11.059 3.891-15.974c2.662-4.71 5.939-8.602 10.24-11.469s9.011-4.096 13.926-4.096c4.915 0 9.421 1.434 13.722 4.096 4.301 2.867 7.578 6.554 9.83 11.264 2.458 4.71 3.686 10.035 3.686 15.974 0 5.734-1.229 11.059-3.686 15.77s-5.734 8.397-9.83 11.264c-4.096 2.662-8.806 4.096-13.722 4.096s-9.626-1.229-13.926-3.891z" />
<glyph unicode="&#xe90f;" glyph-name="Calme" d="M541.491-61.133c-12.493 0-24.576 5.53-32.768 15.36l-222.413 267.469h-211.968c-23.552 0-42.598 19.046-42.598 42.598v327.68c0 23.552 19.046 42.598 42.598 42.598h210.33l222.208 306.79c10.854 14.95 30.106 21.299 47.718 15.565s29.491-22.118 29.491-40.55v-934.707c0-18.022-11.264-33.997-28.262-40.141-4.506-1.843-9.421-2.662-14.336-2.662zM116.941 307.098h189.44c12.698 0 24.781-5.734 32.768-15.36l159.539-192.102v685.056l-157.696-217.907c-7.987-11.059-20.89-17.613-34.611-17.613h-189.44v-242.074zM708.608 225.792l-62.874 57.754-0.205-0.205c2.048 2.253 51.405 58.778 51.405 155.853 0 99.123-52.838 169.574-53.453 170.189-14.541 18.637-11.264 45.466 7.373 59.802 18.637 14.541 45.466 11.264 59.802-7.373 2.867-3.686 71.475-92.774 71.475-222.822 0.205-131.482-70.451-209.92-73.523-213.197zM765.542 101.069c-10.24 0-20.48 3.686-28.672 11.059-17.408 15.974-18.637 42.803-2.867 60.211 0.819 0.819 87.040 99.123 87.040 263.987 0 168.55-88.269 284.262-89.293 285.491-14.541 18.637-11.059 45.466 7.578 59.802 18.637 14.541 45.466 11.059 59.802-7.578 4.301-5.734 107.11-140.288 107.11-337.715 0-199.27-104.858-316.621-109.363-321.536-8.397-9.216-19.866-13.722-31.334-13.722z" />
<glyph unicode="&#xe910;" glyph-name="Close" d="M43.008-59.494c-10.854 0-21.914 4.096-30.106 12.493-16.589 16.589-16.589 43.622 0 60.416l931.84 931.84c16.589 16.589 43.622 16.589 60.416 0 16.589-16.589 16.589-43.622 0-60.416l-931.84-931.84c-8.397-8.397-19.456-12.493-30.31-12.493zM974.848-59.494c-10.854 0-21.914 4.096-30.106 12.493l-931.84 931.84c-16.589 16.589-16.589 43.622 0 60.416 16.589 16.589 43.622 16.589 60.416 0l931.84-931.84c16.589-16.589 16.589-43.622 0-60.416-8.397-8.397-19.456-12.493-30.31-12.493z" />
<glyph unicode="&#xe911;" glyph-name="Connectivity" d="M515.072-14.029c-23.552 0-42.598 19.046-42.598 42.598v182.886c0 23.552 19.046 42.598 42.598 42.598s42.598-19.046 42.598-42.598v-182.886c0-23.347-19.046-42.598-42.598-42.598zM512.614 185.856c-71.68 0-130.253 58.368-130.458 130.048 0 0 0 0.205 0 0.205 0 71.885 58.368 130.253 130.048 130.458v0c0 0 0.205 0 0.205 0 71.68 0 130.253-58.368 130.458-130.048 0.205-71.885-58.163-130.458-130.048-130.662 0 0-0.205 0-0.205 0zM512.614 361.37c-0.205 0-0.205 0 0 0-24.986 0-45.056-20.275-45.056-45.056 0 0 0-0.205 0-0.205 0-24.781 20.275-44.851 45.056-44.851 0 0 0 0 0.205 0 12.083 0 23.347 4.71 31.949 13.312s13.107 19.866 13.107 31.949c-0.205 24.781-20.48 44.851-45.261 44.851zM512.41 403.968v0 0zM357.376 436.531l0.205 0.41-77.824 35.021c2.458 5.53 63.693 136.602 237.568 136.602 91.136 0 147.866-36.864 179.61-67.994 34.611-33.792 47.309-68.198 48.742-71.885l-80.486-28.672 0.205-0.41c-1.229 3.482-33.382 83.558-148.070 83.558-117.555 0.205-158.31-82.944-159.949-86.63zM222.208 513.946v0.205l-77.824 35.226c1.024 2.253 25.805 55.91 84.787 108.544 53.862 47.923 148.070 105.062 291.635 105.062 144.589 0 234.291-57.958 284.058-106.496 53.862-52.429 73.523-104.653 75.571-110.387l-80.282-28.672v-0.205c-2.458 6.554-62.259 160.563-279.347 160.563-92.365 0-170.394-27.238-232.038-80.896-46.49-40.96-66.355-82.534-66.56-82.944zM970.342 561.664c-17.613 0-33.997 10.854-40.141 28.262-0.205 0.41-22.528 59.802-83.558 118.17-81.101 77.414-189.44 116.531-322.15 116.531-320.512 0-430.899-235.52-431.923-237.978-9.83-21.504-35.021-30.925-56.525-21.299-21.504 9.83-30.925 35.021-21.299 56.525 1.434 3.072 34.406 74.752 114.074 145.818 46.49 41.37 99.533 74.342 157.696 98.099 72.090 29.286 152.166 44.237 237.978 44.237 195.994 0 317.235-78.029 384.614-143.565 73.728-71.885 100.352-144.589 101.376-147.661 7.987-22.118-3.686-46.694-25.805-54.477-4.71-1.843-9.626-2.662-14.336-2.662z" />
<glyph unicode="&#xe912;" glyph-name="Dashboard" d="M278.323 638.464h-240.23c-22.118 0-40.141 18.022-40.141 40.141v239.206c0 10.65 4.096 20.685 11.674 28.262 7.782 7.578 17.818 11.674 28.467 11.878 0 0 0 0 0 0h240.23c22.118 0 40.141-18.022 40.141-40.141v-239.002c0-22.323-18.022-40.346-40.141-40.346zM57.754 698.266h200.909v199.885h-200.909v-199.885zM278.323 898.15v0 0zM57.754 917.811v0c0 0 0 0 0 0zM629.965 638.464h-240.026c-22.118 0-40.141 18.022-40.141 40.141v239.206c0 22.118 18.022 40.141 40.141 40.141h240.026c22.118 0 40.141-18.022 40.141-40.141v-239.002c0-22.323-18.022-40.346-40.141-40.346zM409.6 698.266h200.704v199.885h-200.704v-199.885zM629.965 898.15v0 0zM981.811 638.464h-240.23c-22.118 0-40.141 18.022-40.141 40.141v239.206c0 22.118 18.022 40.141 40.141 40.141h240.026c22.118 0 40.141-18.022 40.141-40.141v-239.002c0-22.323-17.818-40.346-39.936-40.346zM761.242 698.266h200.909v199.885h-200.909v-199.885zM981.811 898.15v0 0zM40.141 284.16c-21.914 0-39.936 18.022-40.141 40.141v239.206c0 22.118 18.022 40.141 40.141 40.141h240.23c22.118 0 40.141-18.022 40.141-40.141v-239.002c0-22.118-18.022-40.141-40.141-40.141l-240.23-0.205c0 0 0 0 0 0zM40.141 343.962c0 0 0 0 0 0v0c0 0 0 0 0 0zM59.802 543.846v-199.885h200.909v199.885h-200.909zM280.371 543.846v0 0zM632.013 284.16h-240.026c-22.118 0-40.141 18.022-40.141 40.141v239.206c0 22.118 18.022 40.141 40.141 40.141h240.026c22.118 0 40.141-18.022 40.141-40.141v-239.002c0-22.323-18.022-40.346-40.141-40.346zM411.648 343.962h200.704v199.885h-200.704v-199.885zM632.013 543.846v0 0zM983.859 284.16h-240.23c-22.118 0-40.141 18.022-40.141 40.141v239.206c0 22.118 18.022 40.141 40.141 40.141h240.026c22.118 0 40.141-18.022 40.141-40.141v-239.002c0-22.323-17.818-40.346-39.936-40.346zM763.29 343.962h200.909v199.885h-200.909v-199.885zM983.859 543.846v0 0zM40.141-70.144c-21.914 0-39.936 18.022-40.141 40.141v239.206c0 22.118 18.022 40.141 40.141 40.141h240.23c22.118 0 40.141-18.022 40.141-40.141v-239.002c0-22.118-18.022-40.141-40.141-40.141l-240.23-0.205c0 0 0 0 0 0zM40.141-10.342c0 0 0 0 0 0v0c0 0 0 0 0 0zM59.802 189.542v-199.885h200.909v199.885h-200.909zM280.371 189.542v0 0zM632.013-70.144h-240.026c-22.118 0-40.141 18.022-40.141 40.141v239.206c0 22.118 18.022 40.141 40.141 40.141h240.026c22.118 0 40.141-18.022 40.141-40.141v-239.002c0-22.323-18.022-40.346-40.141-40.346zM411.648-10.342h200.704v199.885h-200.704v-199.885zM632.013 189.542v0 0zM983.859-70.144h-240.23c-22.118 0-40.141 18.022-40.141 40.141v239.206c0 22.118 18.022 40.141 40.141 40.141h240.026c22.118 0 40.141-18.022 40.141-40.141v-239.002c0-22.323-17.818-40.346-39.936-40.346zM763.29-10.342h200.909v199.885h-200.909v-199.885zM983.859 189.542v0 0z" />
<glyph unicode="&#xe913;" glyph-name="Decrease" d="M916.48 190.362c-10.65 0-21.299 3.891-29.491 11.878l-308.224 295.731-150.938-187.187c-7.373-9.011-18.022-14.746-29.696-15.77s-23.142 2.867-31.949 10.65l-341.811 305.357c-17.613 15.77-19.046 42.598-3.482 60.211 15.77 17.613 42.598 19.046 60.211 3.482l308.224-275.456 151.962 188.416c7.578 9.216 18.637 14.95 30.515 15.77s23.552-3.482 32.358-11.878l341.811-327.885c16.998-16.384 17.613-43.418 1.229-60.416-8.397-8.602-19.456-12.902-30.72-12.902zM969.114 146.944c0 0 0 0 0 0l-225.075 0.614c-23.552 0-42.598 19.251-42.598 42.803s19.251 42.598 42.598 42.598c0 0 0 0 0.205 0l182.272-0.41v184.73c0 23.552 19.046 42.598 42.598 42.598 0 0 0 0 0 0 23.552 0 42.598-19.046 42.598-42.598l0.205-227.533c0-11.264-4.506-22.118-12.493-30.31-8.192-7.987-19.046-12.493-30.31-12.493z" />
<glyph unicode="&#xe914;" glyph-name="Description" d="M623.616 169.882c-108.749 0-212.787 46.285-285.696 126.976-65.946 72.499-102.4 166.707-102.195 265.011 0 104.448 40.346 202.752 113.459 276.89 73.318 74.138 170.598 114.893 274.432 114.893 213.811 0 387.686-175.718 387.686-391.782 0-216.269-173.875-391.987-387.686-391.987 0 0 0 0 0 0zM623.616 868.25c-166.707 0-302.49-137.421-302.49-306.586-0.205-77.005 28.262-150.733 80.077-207.667 56.73-62.874 137.83-98.918 222.413-98.918 0 0 0 0 0 0 166.707 0 302.49 137.421 302.49 306.586s-135.782 306.586-302.49 306.586zM51.2-61.542c-10.854 0-21.709 4.096-29.901 12.288-16.794 16.589-16.998 43.622-0.41 60.416l325.632 329.728c16.589 16.794 43.622 16.998 60.416 0.41s16.998-43.622 0.41-60.416l-325.632-329.728c-8.602-8.602-19.661-12.698-30.515-12.698zM802.816 650.547h-352.051c-16.589 0-29.901 13.312-29.901 29.901s13.312 29.901 29.901 29.901h352.051c16.589 0 29.901-13.312 29.901-29.901s-13.312-29.901-29.901-29.901zM802.816 533.197h-352.051c-16.589 0-29.901 13.312-29.901 29.901s13.312 29.901 29.901 29.901h352.051c16.589 0 29.901-13.312 29.901-29.901s-13.312-29.901-29.901-29.901zM805.274 413.389h-352.256c-16.589 0-29.901 13.312-29.901 29.901s13.312 29.901 29.901 29.901h352.051c16.589 0 29.901-13.312 29.901-29.901 0.205-16.589-13.312-29.901-29.696-29.901z" />
<glyph unicode="&#xe915;" glyph-name="Dynamics" d="M956.416-44.749h-909.312c-16.589 0-29.901 13.312-29.901 29.901s13.312 29.901 29.901 29.901h909.312c16.589 0 29.901-13.312 29.901-29.901s-13.312-29.901-29.901-29.901zM47.104-34.509c-16.589 0-29.901 13.312-29.901 29.901v294.912c0 16.589 13.312 29.901 29.901 29.901s29.901-13.312 29.901-29.901v-294.912c0-16.589-13.312-29.901-29.901-29.901zM956.416-34.509c-16.589 0-29.901 13.312-29.901 29.901v880.64c0 16.589 13.312 29.901 29.901 29.901s29.901-13.312 29.901-29.901v-880.64c0-16.589-13.312-29.901-29.901-29.901zM47.104 260.403c-7.987 0-15.974 3.277-21.914 9.626-11.264 12.083-10.445 30.925 1.638 42.189l301.056 278.528c6.349 5.939 14.746 8.602 23.347 7.782l202.342-21.299 383.59 321.536c12.698 10.65 31.539 9.011 41.984-3.686 10.65-12.698 9.011-31.539-3.686-41.984l-393.216-329.728c-6.144-5.12-14.336-7.578-22.323-6.758l-201.523 21.094-291.021-269.312c-5.734-5.325-13.107-7.987-20.275-7.987zM61.44 139.571c-8.602 0-17.203 3.686-23.142 11.059-10.445 12.698-8.397 31.539 4.301 41.984l286.72 233.472c6.144 5.12 14.131 7.373 21.914 6.554l206.029-21.504 383.181 204.595c14.541 7.782 32.563 2.253 40.346-12.288s2.253-32.563-12.288-40.346l-391.168-208.896c-5.325-2.867-11.264-3.891-17.203-3.277l-202.752 21.299-277.094-225.894c-5.53-4.506-12.288-6.758-18.842-6.758zM59.392 28.979c-10.854 0-21.299 5.939-26.624 16.179-7.578 14.746-1.843 32.768 12.902 40.141l286.72 147.456c5.325 2.662 11.469 3.891 17.408 3.072l204.8-25.805 393.626 113.050c15.77 4.506 32.358-4.71 36.864-20.48s-4.71-32.358-20.48-36.864l-399.36-114.688c-3.891-1.024-7.987-1.434-12.083-1.024l-201.523 25.6-278.528-143.36c-4.506-2.253-9.011-3.277-13.722-3.277z" />
<glyph unicode="&#xe916;" glyph-name="Edit" d="M201.318-32.256c0 0-0.205 0 0 0-18.227 0-36.25 8.192-50.79 22.733-26.419 26.829-65.331 66.56-91.955 93.389-29.082 29.491-27.238 73.114 4.71 105.677 126.362 129.434 563.61 577.126 563.61 577.126 2.048 2.253 4.506 4.096 7.168 5.53l299.827 160.563c11.469 6.144 25.395 4.096 34.816-4.71s11.878-22.938 6.144-34.611l-158.106-325.837c-1.434-2.867-3.277-5.53-5.53-7.987l-561.152-570.163c0 0 0 0 0 0-13.926-14.131-30.925-21.709-48.742-21.709zM228.762 10.342v0 0zM666.419 721.613c-39.936-40.755-440.32-450.765-560.333-573.645-13.312-13.517-7.168-19.866-4.915-22.118 26.419-26.829 65.331-66.56 91.955-93.389 3.686-3.686 6.554-4.915 8.192-4.915 0 0 0 0 0 0 1.638 0 3.891 1.434 6.349 3.891l557.466 566.886 115.712 238.387-214.426-115.098zM650.445 747.827l145.613-148.070-480.87-488.653-145.613 148.070 480.87 488.653zM919.552 876.442l-27.034-124.723-93.594 99.328 120.627 25.395z" />
<glyph unicode="&#xe917;" glyph-name="EditAd" d="M750.592-47.411c-144.998 0-262.963 117.965-262.963 262.963s117.965 262.963 262.963 262.963 262.963-117.965 262.963-262.963c0-144.998-117.965-262.963-262.963-262.963zM750.592 418.714c-112.026 0-203.162-91.136-203.162-203.162s91.136-203.162 203.162-203.162 203.162 91.136 203.162 203.162-91.136 203.162-203.162 203.162zM416.768 160.256h-371.302c-16.589 0-29.901 13.312-29.901 29.901v480.666c0 8.397 3.482 16.384 9.626 22.118l268.902 245.965c11.264 10.24 28.262 10.445 39.731 0.614l291.635-251.904c6.554-5.734 10.445-13.926 10.445-22.528v-148.89c0-16.589-13.312-29.901-29.901-29.901s-29.901 13.312-29.901 29.901v135.168l-261.325 225.485-239.616-219.136v-437.658h341.402c16.589 0 29.901-13.312 29.901-29.901s-13.312-29.901-29.696-29.901zM669.696 84.89c-4.301 0-8.602 1.638-11.878 4.915l-38.912 38.093c-3.277 3.277-5.12 7.578-5.12 12.083s1.843 9.011 5.12 12.288l155.443 152.986c1.229 1.229 2.662 2.253 4.096 3.072l78.029 40.346c6.554 3.482 14.541 2.253 19.866-3.072s6.554-13.312 3.277-19.866l-41.165-81.51c-0.819-1.638-2.048-3.277-3.277-4.506l-153.395-150.118c-3.277-3.072-7.578-4.71-12.083-4.71zM655.155 139.981l14.541-14.336 139.264 136.192 16.179 31.949-28.877-14.95-141.107-138.854zM786.842 293.581l37.888-37.069-125.133-122.266-37.888 37.069 125.133 122.266zM856.883 325.734l-6.963-31.13-24.371 24.781 31.334 6.349z" />
<glyph unicode="&#xe918;" glyph-name="EditAgency" d="M750.592-47.411c-144.998 0-262.963 117.965-262.963 262.963s117.965 262.963 262.963 262.963 262.963-117.965 262.963-262.963c0-144.998-117.965-262.963-262.963-262.963zM750.592 418.714c-112.026 0-203.162-91.136-203.162-203.162s91.136-203.162 203.162-203.162 203.162 91.136 203.162 203.162-91.136 203.162-203.162 203.162zM679.936 513.536c-48.333 0-78.643 16.998-97.075 35.226-16.794-18.432-44.442-35.226-90.317-35.226-48.947 0-81.715 19.661-102.4 43.008-20.685-23.142-52.019-43.008-96.461-43.008-42.598 0-71.27 17.613-89.702 39.526-18.842-20.685-46.899-37.478-85.811-37.478-46.694 0-80.282 14.336-100.147 42.394-29.901 42.189-13.722 96.87-10.24 107.315l38.707 143.565c3.482 13.107 15.36 22.118 28.877 22.118h610.509c12.902 0 24.166-8.192 28.262-20.275l46.080-136.397c7.168-14.336 35.226-75.571 8.397-120.422-11.059-18.227-35.43-40.346-88.678-40.346zM610.304 620.237c1.024-8.397 9.011-46.899 69.632-46.899 11.469 0 31.334 1.434 37.274 11.469 8.602 14.541-2.867 48.742-10.854 63.898-0.819 1.434-1.434 3.072-2.048 4.506l-39.936 118.374h-566.272l-32.973-122.47c-0.205-0.819-0.41-1.434-0.614-2.253-3.072-8.806-9.216-38.093 2.458-54.272 10.035-14.131 33.382-16.998 51.405-16.998 19.661 0 34.816 7.782 46.49 23.757 9.011 12.288 12.288 25.19 12.288 25.395 3.277 14.131 16.179 24.166 30.72 23.552 14.541-0.819 26.214-11.469 28.058-25.805 0.205-1.434 2.662-14.336 11.059-26.419 10.445-14.95 26.010-22.323 47.104-22.323 22.938 0 40.755 8.397 54.477 25.805 10.24 12.902 14.336 26.214 14.336 26.419 3.686 13.517 16.179 23.142 30.31 22.323 13.926-0.819 25.6-10.65 27.853-24.576 0.41-1.638 3.482-14.131 13.517-26.214 13.107-15.974 32.973-23.962 58.778-23.962 24.576 0 40.96 6.963 50.176 21.094 6.758 10.65 7.782 22.118 7.782 23.757-0.205 16.179 12.493 29.901 28.672 30.515 15.77 0.205 29.491-12.288 30.31-28.672zM36.25 656.691v0 0zM450.97 134.861h-367.821c-16.589 0-29.901 13.312-29.901 29.901v363.11c0 16.589 13.312 29.901 29.901 29.901s29.901-13.312 29.901-29.901v-333.21h338.125c16.589 0 29.901-13.312 29.901-29.901s-13.517-29.901-30.106-29.901zM702.464 483.635c-16.589 0-29.901 13.312-29.901 29.901 0 16.179 1.229 21.914 2.458 25.805 5.12 15.77 22.118 24.166 37.683 19.046 14.541-4.71 22.938-19.661 19.866-34.406 0-1.024-0.41-4.096-0.41-10.445 0.205-16.589-13.107-29.901-29.696-29.901zM731.75 520.704c0 0 0 0 0 0s0 0 0 0zM731.75 520.704c0 0 0 0 0 0s0 0 0 0zM731.75 520.704c0 0 0 0 0 0s0 0 0 0zM731.75 520.704c0 0 0 0 0 0s0 0 0 0zM732.774 524.186v0 0zM186.573 783.053c-16.589 0-29.901 13.312-29.901 29.901v121.037c0 16.589 13.312 29.901 29.901 29.901h395.878c16.589 0 29.901-13.312 29.901-29.901v-119.194c0-16.589-13.312-29.901-29.901-29.901s-29.901 13.312-29.901 29.901v89.293h-336.282v-91.136c0-16.589-13.312-29.901-29.696-29.901zM389.325 273.51h-212.582c-16.589 0-29.901 13.312-29.901 29.901v146.432c0 16.589 13.312 29.901 29.901 29.901h212.582c16.589 0 29.901-13.312 29.901-29.901v-146.432c0-16.589-13.312-29.901-29.901-29.901zM206.643 333.312h152.986v86.63h-152.986v-86.63zM485.376 330.035c-16.589 0-29.901 13.312-29.901 29.901 0 57.344-0.41 89.088-0.41 89.498-0.205 7.987 2.867 15.565 8.602 21.299s13.107 9.011 21.094 9.011c0.41 0 32.358 0.205 70.246 0.205 16.589 0 29.901-13.312 29.901-29.901s-13.312-29.901-29.901-29.901c-14.746 0-28.467 0-39.936 0 0-14.95 0.205-35.226 0.205-60.211 0-16.589-13.312-29.901-29.901-29.901zM671.744 82.842c-4.301 0-8.602 1.638-11.878 4.915l-38.912 38.093c-3.277 3.277-5.12 7.578-5.12 12.083s1.843 9.011 5.12 12.288l155.443 152.986c1.229 1.229 2.662 2.253 4.096 3.072l78.029 40.346c6.554 3.482 14.541 2.253 19.866-3.072 5.325-5.12 6.554-13.312 3.277-19.866l-41.165-81.51c-0.819-1.638-2.048-3.277-3.277-4.506l-153.395-150.118c-3.277-3.072-7.578-4.71-12.083-4.71zM657.203 137.933l14.541-14.336 139.264 136.192 16.179 31.949-28.877-14.95-141.107-138.854zM788.89 291.533l37.888-37.069-125.133-122.266-37.888 37.069 125.133 122.266zM858.931 323.686l-6.963-31.13-24.371 24.781 31.334 6.349z" />
<glyph unicode="&#xe919;" glyph-name="Education" d="M519.987 129.946c-4.301 0-8.602 0-12.902 0.205-111.206 3.277-219.955 49.152-298.394 125.747-8.192 7.987-12.902 19.046-12.902 30.515v170.803c0 23.552 19.046 42.598 42.598 42.598s42.598-19.046 42.598-42.598v-152.166c132.301-117.146 332.186-120.218 461.414-6.963 0 2.867 0 6.144 0 9.83 0 14.95 0 35.43 0 61.235 0.205 43.827 0.614 88.064 0.614 88.474 0.205 23.347 19.251 42.394 42.598 42.394 0.205 0 0.205 0 0.41 0 23.552-0.205 42.598-19.456 42.394-43.008-0.614-72.909-1.024-155.648-0.41-171.213 1.843-12.902-2.458-26.419-12.493-36.25-79.053-77.414-183.706-119.603-295.526-119.603zM826.368 292.352c0.205-0.41 0.205-0.819 0.41-1.229 0 0.41-0.205 0.819-0.41 1.229zM116.736 341.914c-23.552 0-42.598 19.046-42.598 42.598v149.504c0 23.552 19.046 42.598 42.598 42.598s42.598-19.046 42.598-42.598v-149.504c0-23.552-19.046-42.598-42.598-42.598zM517.939 337.613c-4.915 0-9.626 0.819-14.336 2.458l-467.558 165.478c-16.794 5.939-28.262 21.709-28.467 39.731s10.65 33.997 27.443 40.346l467.763 179.405c10.035 3.891 20.89 3.686 30.925-0.205l455.68-179.405c16.589-6.554 27.238-22.528 27.034-40.346s-11.469-33.382-28.058-39.526l-455.68-165.683c-4.71-1.434-9.83-2.253-14.746-2.253zM173.466 547.533l344.269-122.061 335.462 121.856-335.462 132.096-344.269-131.891z" />
<glyph unicode="&#xe91a;" glyph-name="Energy" d="M740.966 408.678c-9.421 0-18.842 3.072-26.624 9.421-18.432 14.746-21.299 41.574-6.554 60.006 33.997 42.394 52.634 95.437 52.429 149.709 0 132.506-107.725 240.435-240.026 240.435s-240.026-107.93-240.026-240.435c0-54.272 18.432-107.315 52.429-149.709 14.746-18.432 11.674-45.261-6.758-60.006s-45.261-11.674-60.006 6.758c-45.875 57.344-71.066 129.434-71.066 202.957 0 179.61 145.818 325.632 325.222 325.632s325.222-146.022 325.222-325.632c0.205-73.523-25.19-145.818-71.27-203.162-8.192-10.65-20.48-15.974-32.973-15.974zM420.659 162.099c-22.938 0-41.984 18.227-42.598 41.37-1.229 42.598-61.235 148.48-103.424 210.33-13.312 19.456-8.397 46.080 11.059 59.392s46.080 8.397 59.392-11.059c1.229-1.638 28.467-41.779 56.525-91.955 40.346-72.090 60.416-125.747 61.645-163.84 0.614-23.552-17.818-43.213-41.37-43.827-0.41-0.41-0.819-0.41-1.229-0.41zM624.026 166.4c-0.41 0-0.819 0-1.229 0-23.552 0.614-41.984 20.275-41.37 43.827 1.229 38.298 21.299 91.955 61.85 164.25 28.058 50.176 55.706 90.522 56.73 92.16 13.312 19.456 39.936 24.371 59.392 11.059s24.371-39.936 11.059-59.392c-42.394-61.85-102.605-168.346-103.834-210.944-0.614-22.733-19.661-40.96-42.598-40.96zM640 150.835h-226.099c-23.552 0-42.598 19.046-42.598 42.598s19.046 42.598 42.598 42.598h226.099c23.552 0 42.598-19.046 42.598-42.598s-19.046-42.598-42.598-42.598zM640 46.797h-226.099c-23.552 0-42.598 19.046-42.598 42.598s19.046 42.598 42.598 42.598h226.099c23.552 0 42.598-19.046 42.598-42.598s-19.046-42.598-42.598-42.598zM640-57.446h-226.099c-23.552 0-42.598 19.046-42.598 42.598s19.046 42.598 42.598 42.598h226.099c23.552 0 42.598-19.046 42.598-42.598s-19.046-42.598-42.598-42.598zM520.192 552.653c-16.589 0-29.901 13.312-29.901 29.901v115.507c0 16.589 13.312 29.901 29.901 29.901s29.901-13.312 29.901-29.901v-115.507c0-16.589-13.312-29.901-29.901-29.901zM609.485 588.083c-16.589 0-29.901 13.312-29.901 29.901v44.646c0 16.589 13.312 29.901 29.901 29.901s29.901-13.312 29.901-29.901v-44.646c0-16.589-13.312-29.901-29.901-29.901zM428.646 588.083c-16.589 0-29.901 13.312-29.901 29.901v44.646c0 16.589 13.312 29.901 29.901 29.901s29.901-13.312 29.901-29.901v-44.646c0-16.589-13.517-29.901-29.901-29.901z" />
<glyph unicode="&#xe91b;" glyph-name="Eye" d="M514.662 137.318c-114.278 0-237.568 43.008-356.557 124.723-88.678 60.621-143.974 121.037-146.227 123.699-13.722 15.155-14.746 37.888-2.662 54.272 2.253 3.072 58.573 77.619 148.070 152.781 53.043 44.646 107.11 80.282 160.563 105.882 68.608 32.973 136.602 49.766 201.933 49.766 65.536 0 132.71-16.794 199.68-49.971 52.224-25.805 104.243-61.645 155.034-106.496 85.402-75.366 137.421-150.323 139.469-153.395 11.059-16.179 9.83-37.683-3.072-52.429-2.253-2.458-55.706-63.078-142.746-123.904-116.941-81.715-239.002-124.928-353.485-124.928zM100.966 417.28c62.054-58.163 227.328-194.56 413.696-194.56 187.802 0 348.774 137.626 407.757 194.97-55.706 69.427-215.245 245.35-402.842 245.35s-357.99-175.514-418.611-245.76zM518.144 288.87c-84.378 0-152.986 68.608-152.986 152.986s68.608 152.986 152.986 152.986c84.378 0 152.986-68.608 152.986-152.986 0.205-84.378-68.403-152.986-152.986-152.986zM518.144 509.645c-37.274 0-67.789-30.31-67.789-67.789s30.31-67.789 67.789-67.789c37.274 0 67.789 30.31 67.789 67.789s-30.31 67.789-67.789 67.789z" />
<glyph unicode="&#xe91c;" glyph-name="Facebook" d="M755.712 628.429h-163.84v106.291c0 39.936 26.829 49.152 45.67 49.152h115.712v175.514l-159.539 0.614c-176.947 0-217.088-130.867-217.088-214.63v-116.941h-102.195v-180.838h102.195v-511.59h215.040v511.59h145.203l18.842 180.838z" />
<glyph unicode="&#xe91d;" glyph-name="Filter" d="M967.68 667.341c0 0-0.205 0 0 0-1.638 0-151.757 0.205-353.28 0.205-23.552 0-42.598 19.046-42.598 42.598s19.046 42.598 42.598 42.598c201.523 0 351.846-0.205 353.28-0.205 23.552 0 42.598-19.251 42.598-42.803 0-23.347-19.046-42.394-42.598-42.394zM422.298 667.341h-367.616c-23.552 0-42.598 19.046-42.598 42.598s19.046 42.598 42.598 42.598h367.616c23.552 0 42.598-19.046 42.598-42.598s-19.046-42.598-42.598-42.598zM517.53 597.094c-62.259 0-112.845 50.586-112.845 112.845s50.586 112.845 112.845 112.845 112.845-50.586 112.845-112.845-50.586-112.845-112.845-112.845zM517.53 762.982c-29.286 0-53.043-23.757-53.043-53.043s23.757-53.043 53.043-53.043 53.043 23.757 53.043 53.043-23.757 53.043-53.043 53.043zM277.914 339.046c-62.259 0-112.845 50.586-112.845 112.845s50.586 112.845 112.845 112.845 112.845-50.586 112.845-112.845-50.586-112.845-112.845-112.845zM277.914 504.934c-29.286 0-53.043-23.757-53.043-53.043s23.757-53.043 53.043-53.043 53.043 23.757 53.043 53.043c0 29.286-23.757 53.043-53.043 53.043zM730.522 78.95c-62.259 0-112.845 50.586-112.845 112.845s50.586 112.845 112.845 112.845 112.845-50.586 112.845-112.845-50.586-112.845-112.845-112.845zM730.522 244.838c-29.286 0-53.043-23.757-53.043-53.043s23.757-53.043 53.043-53.043 53.043 23.757 53.043 53.043-23.757 53.043-53.043 53.043zM967.68 409.293c0 0 0 0 0 0-3.891 0-385.229 0.205-586.752 0.205-23.552 0-42.598 19.046-42.598 42.598s19.046 42.598 42.598 42.598c201.523 0 582.861-0.205 586.752-0.205 23.552 0 42.598-19.046 42.598-42.598s-19.046-42.598-42.598-42.598zM176.128 409.498h-100.352c-23.552 0-42.598 19.046-42.598 42.598s19.046 42.598 42.598 42.598h100.352c23.552 0 42.598-19.046 42.598-42.598s-19.046-42.598-42.598-42.598zM630.784 149.402c-192.922 0-572.416 0.41-576.307 0.41-23.552 0-42.598 19.251-42.598 42.803s19.046 42.598 42.598 42.598c0 0 0 0 0 0 3.891 0 383.386-0.41 576.102-0.41 23.552 0 42.598-19.046 42.598-42.598s-18.842-42.803-42.394-42.803zM967.68 149.811h-141.312c-23.552 0-42.598 19.046-42.598 42.598s19.046 42.598 42.598 42.598h141.312c23.552 0 42.598-19.046 42.598-42.598s-19.046-42.598-42.598-42.598z" />
<glyph unicode="&#xe91e;" glyph-name="Floor" d="M954.368-53.35h-892.928c-23.552 0-42.598 19.046-42.598 42.598v907.264c0 23.552 19.046 42.598 42.598 42.598h231.424c23.552 0 42.598-19.046 42.598-42.598v-178.586h158.106c23.552 0 42.598-19.046 42.598-42.598v-172.442h194.97c23.552 0 42.598-19.046 42.598-42.598v-182.682h180.634c23.552 0 42.598-19.046 42.598-42.598v-245.76c0-23.552-19.046-42.598-42.598-42.598zM104.038 31.846h807.526v160.358h-180.429c-23.552 0-42.598 19.046-42.598 42.598v182.682h-194.97c-23.552 0-42.598 19.046-42.598 42.598v172.442h-158.106c-23.552 0-42.598 19.046-42.598 42.598v178.79h-146.227v-822.067z" />
<glyph unicode="&#xe91f;" glyph-name="FloorHouse" d="M731.136-59.494h-673.792c-23.552 0-42.598 18.842-42.598 42.394l-6.144 923.648c0 11.264 4.301 22.323 12.493 30.31 7.987 7.987 18.842 12.698 30.31 12.698h679.936c23.552 0 42.598-19.046 42.598-42.598v-923.648c-0.205-23.757-19.251-42.803-42.803-42.803zM99.738 25.702h588.8v838.451h-594.33l5.53-838.451zM395.264-49.254c-23.552 0-42.598 19.046-42.598 42.598v913.408c0 23.552 19.046 42.598 42.598 42.598s42.598-19.046 42.598-42.598v-913.408c0-23.552-19.046-42.598-42.598-42.598zM985.088 467.251h-174.080c-11.059 0-21.299 6.144-26.419 15.974s-4.301 21.709 2.048 30.925l90.112 129.024c5.734 8.192 15.155 12.902 24.986 12.698s19.046-5.325 24.576-13.517l83.968-129.024c5.939-9.216 6.349-20.89 1.229-30.515-5.325-9.626-15.565-15.565-26.419-15.565zM868.352 527.053h61.645l-29.696 45.67-31.949-45.67zM901.12 244.019c-9.83 0-18.842 4.71-24.576 12.698l-90.112 129.024c-6.349 9.216-7.168 21.094-2.048 30.925s15.36 15.974 26.419 15.974h174.080c10.854 0 21.094-5.939 26.214-15.565 5.325-9.626 4.71-21.299-1.229-30.515l-83.968-129.024c-5.325-8.397-14.541-13.312-24.576-13.517 0.205 0 0 0-0.205 0zM868.352 373.043l31.949-45.67 29.696 45.67h-61.645z" />
<glyph unicode="&#xe920;" glyph-name="Geolocate" d="M510.976 16.282c-236.339 0-428.646 192.307-428.646 428.646s192.307 428.646 428.646 428.646 428.646-192.307 428.646-428.646-192.307-428.646-428.646-428.646zM510.976 788.378c-189.44 0-343.45-154.010-343.45-343.45s154.010-343.45 343.45-343.45c189.44 0 343.45 154.010 343.45 343.45s-154.010 343.45-343.45 343.45zM505.856 571.29c-23.552 0-42.598 19.046-42.598 42.598v288.768c0 23.552 19.046 42.598 42.598 42.598s42.598-19.046 42.598-42.598v-288.768c0-23.552-19.046-42.598-42.598-42.598zM964.813 397.21h-289.178c-23.552 0-42.598 19.046-42.598 42.598s19.046 42.598 42.598 42.598h289.178c23.552 0 42.598-19.046 42.598-42.598s-19.046-42.598-42.598-42.598zM503.808-61.952c-23.552 0-42.598 19.046-42.598 42.598v289.587c0 23.552 19.046 42.598 42.598 42.598s42.598-19.046 42.598-42.598v-289.382c0-23.552-19.046-42.803-42.598-42.803zM334.234 399.258h-289.587c-23.552 0-42.598 19.046-42.598 42.598s19.046 42.598 42.598 42.598h289.382c23.552 0 42.598-19.046 42.598-42.598s-18.842-42.598-42.394-42.598z" />
<glyph unicode="&#xe921;" glyph-name="GlobalNotation" d="M702.054 171.11h-380.518c-15.974 0-29.082 12.493-29.901 28.467 0 0.819 0 1.434 0 2.253s0 4.096 0 16.794c0 16.589 13.312 29.901 29.901 29.901 12.083 0 22.528-7.168 27.238-17.613h323.379v279.552l-167.526 144.794c-17.818-16.384-45.466-41.574-72.909-66.765-32.154-29.696-64.717-59.392-80.282-73.728v-29.901c0-16.589-13.312-29.901-29.901-29.901s-29.901 13.312-29.901 29.901v43.008c0 8.397 3.482 16.384 9.626 22.118 0.41 0.41 45.261 41.37 89.907 82.534 46.080 42.189 92.57 84.787 92.57 84.787 11.264 10.24 28.262 10.445 39.731 0.614l198.042-171.213c6.554-5.734 10.24-13.926 10.24-22.528v-323.174c0.205-16.589-13.107-29.901-29.696-29.901zM318.669 230.707c-14.95-1.434-26.624-13.722-27.034-28.672 0.614 14.95 12.083 27.238 27.034 28.672zM318.669 230.707c0 0 0 0 0 0s0 0 0 0zM318.669 230.707c0 0 0 0 0 0s0 0 0 0zM318.874 230.707c0 0-0.205 0 0 0-0.205 0 0 0 0 0zM511.795-43.11c-91.955 0-181.862 25.805-259.891 74.342-78.029 48.742-140.698 117.965-181.248 200.704-10.445 21.094-1.638 46.694 19.456 57.139s46.694 1.638 57.139-19.456c67.584-138.035 210.739-227.123 364.544-227.123 0 0 0 0 0 0 223.846 0 405.914 182.067 405.914 405.914s-181.862 405.504-405.709 405.504c-23.552 0-42.598 19.046-42.598 42.598s19.046 42.598 42.598 42.598c131.277 0 254.566-50.995 347.341-143.77s143.77-216.064 143.77-347.341c0-270.746-220.365-491.11-491.315-491.11 0.205 0 0.205 0 0 0zM260.915 301.773c-12.288 0-23.552 7.782-28.058 19.456-4.71 12.493-0.41 26.624 10.445 34.611 20.275 14.746 199.27 143.974 249.242 163.226 39.526 15.36 68.198 9.421 85.197 1.843 20.89-9.216 37.274-26.829 45.875-49.357 9.421-23.962 9.011-49.562-0.819-71.885-7.782-17.408-24.986-41.37-64.307-56.525-53.248-20.685-270.746-39.322-295.322-41.37-0.41 0-1.434 0-2.253 0zM540.058 468.89c-7.578 0-16.179-1.843-25.805-5.53-20.89-7.987-82.739-48.742-143.77-90.931 72.499 7.987 144.794 18.227 166.912 26.624 15.974 6.144 26.624 14.746 31.13 24.986 4.301 9.83 2.253 19.661-0.205 26.214 0 0 0 0 0 0-3.072 7.782-7.782 13.312-14.336 16.179-4.301 1.638-8.806 2.458-13.926 2.458z" />
<glyph unicode="&#xe922;" glyph-name="Health" d="M457.523-36.966c-0.205 0-0.205 0-0.41 0-21.094 0.205-38.912 15.77-41.779 36.659l-65.126 454.246-19.251-65.331c-5.325-18.227-21.914-30.72-40.96-30.72h-246.989c-23.552 0-42.598 19.046-42.598 42.598s19.046 42.598 42.598 42.598h215.040l65.536 222.618c5.734 19.251 23.962 31.949 44.032 30.515s36.25-16.589 39.117-36.454l53.248-371.712 92.774 572.006c3.277 20.275 20.48 35.43 41.165 35.84 20.48 0.41 38.502-13.722 42.803-33.792l89.293-422.707 205.21 3.686c23.552 0.41 43.008-18.432 43.418-41.984s-18.432-43.008-41.984-43.418l-240.435-4.096c-0.205 0-0.614 0-0.819 0-20.070 0-37.478 14.131-41.779 33.792l-49.357 233.472-100.762-622.182c-3.277-20.48-21.094-35.635-41.984-35.635zM943.718 475.648c40.96 0 73.933-33.178 73.933-74.138s-33.178-73.933-74.138-73.933c-40.96 0-73.933 33.178-73.933 74.138 0.205 40.96 33.382 73.933 74.138 73.933z" />
<glyph unicode="&#xe923;" glyph-name="Heart" d="M518.963 1.331c-8.397 0-16.794 2.458-24.166 7.373-4.915 3.277-120.422 82.534-237.773 189.235-69.837 63.488-125.542 123.29-165.888 178.176-54.682 74.342-81.101 138.65-81.101 196.608 0 0.614 0 1.229 0 1.843 0 2.253 0.205 4.71 0.205 7.373 1.434 38.298 4.096 109.773 39.117 172.851 20.685 37.274 49.562 66.355 85.811 86.63 41.165 23.142 92.16 34.816 151.552 34.816 75.366 0 137.421-23.962 184.73-71.475 19.456-19.661 34.816-41.779 46.694-64.307 18.637 35.021 42.394 63.898 71.27 86.016 43.213 33.178 96.666 49.971 158.31 49.971 143.36 0 208.691-69.427 238.182-127.795 33.178-65.536 33.178-137.011 33.178-175.514 0-58.368-26.010-122.675-79.462-196.813-39.526-54.886-94.413-114.893-162.816-178.176-115.098-106.701-228.557-185.549-233.267-189.030-7.578-5.12-15.974-7.782-24.576-7.782zM95.437 572.109c0.614-72.499 78.029-182.682 218.522-310.272 82.125-74.547 165.069-136.602 205.005-165.274 39.117 28.672 120.422 90.522 200.499 164.659 138.24 128 214.221 238.797 214.221 311.706 0 31.539 0 89.702-23.962 137.011-27.648 54.477-80.486 80.896-161.997 80.896-77.414 0-130.458-34.611-161.792-106.086-24.576-56.115-25.6-114.074-25.6-114.688 0 0 0 0 0 0-0.205-23.552-19.251-42.598-42.803-42.394s-42.598 19.251-42.394 42.803c0 1.638-0.614 60.211-25.805 116.531-31.334 69.837-84.582 103.834-162.611 103.834-80.486 0-133.734-25.19-162.611-77.21-25.19-45.261-27.238-101.171-28.467-134.758-0.205-2.458-0.205-4.71-0.205-6.758z" />
<glyph unicode="&#xe924;" glyph-name="HeartFilled" d="M517.734 570.266c0 0 1.229 263.168 229.99 263.168s228.557-191.488 228.557-260.506c0-211.149-457.318-528.794-457.318-528.794s-466.33 318.464-466.33 528.794c2.867 66.765 1.638 260.506 234.086 260.506s231.014-263.168 231.014-263.168zM518.963 1.331c-8.397 0-16.794 2.458-24.166 7.373-4.915 3.277-120.422 82.534-237.773 189.235-69.837 63.488-125.542 123.29-165.888 178.176-54.682 74.342-81.101 138.65-81.101 196.608 0 0.614 0 1.229 0 1.843 0 2.253 0.205 4.71 0.205 7.373 1.434 38.298 4.096 109.773 39.117 172.851 20.685 37.274 49.562 66.355 85.811 86.63 41.165 23.142 92.16 34.816 151.552 34.816 75.366 0 137.421-23.962 184.73-71.475 19.456-19.661 34.816-41.779 46.694-64.307 18.637 35.021 42.394 63.898 71.27 86.016 43.213 33.178 96.666 49.971 158.31 49.971 143.36 0 208.691-69.427 238.182-127.795 33.178-65.536 33.178-137.011 33.178-175.514 0-58.368-26.010-122.675-79.462-196.813-39.526-54.886-94.413-114.893-162.816-178.176-115.098-106.701-228.557-185.549-233.267-189.030-7.578-5.12-15.974-7.782-24.576-7.782zM95.437 572.109c0.614-72.499 78.029-182.682 218.522-310.272 82.125-74.547 165.069-136.602 205.005-165.274 39.117 28.672 120.422 90.522 200.499 164.659 138.24 128 214.221 238.797 214.221 311.706 0 31.539 0 89.702-23.962 137.011-27.648 54.477-80.486 80.896-161.997 80.896-77.414 0-130.458-34.611-161.792-106.086-24.576-56.115-25.6-114.074-25.6-114.688 0 0 0 0 0 0-0.205-23.552-19.251-42.598-42.803-42.394s-42.598 19.251-42.394 42.803c0 1.638-0.614 60.211-25.805 116.531-31.334 69.837-84.582 103.834-162.611 103.834-80.486 0-133.734-25.19-162.611-77.21-25.19-45.261-27.238-101.171-28.467-134.758-0.205-2.458-0.205-4.71-0.205-6.758z" />
<glyph unicode="&#xe925;" glyph-name="Inscrease" d="M53.248 147.354c-11.674 0-23.347 4.915-31.949 14.336-15.77 17.613-14.131 44.646 3.482 60.211l342.016 305.152c8.806 7.782 20.275 11.674 31.949 10.65s22.323-6.554 29.696-15.77l151.142-187.187 308.429 295.526c16.998 16.384 44.032 15.77 60.416-1.229s15.77-44.032-1.229-60.416l-342.016-327.68c-8.602-8.192-20.275-12.493-32.154-11.674s-22.938 6.554-30.515 15.77l-152.166 188.416-308.634-275.251c-8.192-7.373-18.432-10.854-28.467-10.854zM970.138 372.838c0 0 0 0 0 0-23.552 0-42.598 19.046-42.598 42.598v184.525l-182.272-0.614c0 0 0 0-0.205 0-23.552 0-42.598 19.046-42.598 42.598s19.046 42.803 42.598 42.803l225.28 0.614c11.264 0 22.323-4.506 30.31-12.493s12.493-18.842 12.493-30.31l-0.205-227.328c-0.205-23.347-19.251-42.394-42.803-42.394z" />
<glyph unicode="&#xe926;" glyph-name="Instagram" d="M826.163 960h-628.326c-109.158 0-197.837-88.678-197.837-197.837v-628.326c0-109.158 88.678-197.632 197.837-197.837h628.326c109.158 0.205 197.837 88.678 197.837 198.042v628.122c0 109.363-88.678 197.837-197.837 197.837zM882.893 842.035h22.733v-173.67l-173.056-0.614-0.614 173.466 150.938 0.819zM365.773 553.062c58.163 80.486 170.598 98.714 251.29 40.346 80.486-58.163 98.714-170.598 40.346-251.29-58.163-80.486-170.598-98.714-251.29-40.346-46.899 33.792-74.547 88.269-74.547 146.022 0.205 38.093 12.083 74.752 34.202 105.267zM924.262 134.042c0-54.067-44.032-98.099-98.099-98.099h-628.326c-54.067 0-98.099 43.827-98.099 98.099v419.021h152.781c-13.517-33.382-20.685-69.018-20.685-105.062 0-154.419 125.542-279.962 279.962-279.962s280.166 125.747 280.166 279.962c0 36.045-6.963 71.68-20.685 105.062h152.986v-419.021z" />
<glyph unicode="&#xe927;" glyph-name="KeyPoints" d="M454.042-61.542c-117.35 0-128 5.325-138.65 11.059-11.059 5.734-25.19 14.131-38.298 22.323-5.325-2.458-11.264-3.686-17.408-3.686h-179.814c-23.552 0-42.598 19.046-42.598 42.598v422.502c0 23.552 19.046 42.598 42.598 42.598h179.814c8.806 0 16.998-2.662 23.757-7.168 13.517-2.867 28.877-3.072 33.792 1.434 7.168 6.758 24.986 37.069 38.093 59.187 33.587 56.934 71.68 121.242 116.122 149.504 45.466 29.082 114.688 146.022 124.314 191.078 6.349 29.901 17.613 66.355 47.718 82.33 12.493 6.758 33.382 12.288 61.235 1.229l1.024-0.41c14.541-5.734 48.333-19.251 73.318-54.477 28.672-40.55 36.25-96.051 22.323-164.659-14.746-73.114-47.104-119.194-71.885-149.094 19.661-1.638 43.213-2.458 60.211-3.072 54.067-1.843 105.062-3.686 136.192-19.046 28.877-13.926 49.152-30.72 61.85-51.2 10.854-17.613 21.299-46.899 8.806-86.016-5.734-18.022-13.517-32.768-21.914-44.851 19.046-19.251 31.744-46.899 27.648-83.763-3.891-33.178-16.794-54.477-29.901-67.789 10.445-18.842 15.77-42.394 9.626-70.042-6.144-28.262-23.142-48.333-41.37-62.054 6.144-11.878 10.65-25.805 11.059-41.779 1.024-31.13-9.421-59.187-29.286-79.053-15.155-15.155-43.213-32.768-90.522-31.13-14.746 0.41-65.946-0.614-124.928-2.048-71.066-1.638-159.744-3.686-232.653-4.096-6.963-0.41-13.722-0.41-20.275-0.41zM351.642 26.931c38.298-6.349 250.47-1.434 353.485 0.819 65.331 1.434 112.64 2.662 129.843 2.048 12.902-0.41 22.938 1.843 27.443 6.349 4.096 4.096 4.506 11.878 4.301 15.974-0.205 6.554-10.24 16.589-17.408 21.094-15.565 8.602-24.166 25.6-21.504 43.213s15.974 31.539 33.587 35.226c11.674 2.867 35.021 13.312 37.683 25.19 3.686 16.384-18.842 26.214-19.251 26.214-20.275 8.397-32.154 31.13-25.805 52.019s26.214 33.792 47.514 29.696c8.192-0.41 14.131 3.277 16.179 21.299 1.024 10.035-1.638 13.722-7.782 17.818-6.963 4.506-15.155 6.144-15.36 6.144-20.070 3.072-36.454 19.251-37.683 39.322s10.445 37.683 29.491 43.008c3.482 1.638 20.275 11.059 29.082 38.707 2.867 8.806 6.144 18.637-26.419 34.406-15.155 7.373-67.379 9.216-101.99 10.445-68.198 2.458-111.411 4.915-138.24 23.142-18.637 12.698-24.371 28.672-26.010 39.936-3.686 27.238 12.698 46.49 30.106 66.765 21.914 25.6 52.019 60.621 64.922 124.723 17.203 84.582-11.469 108.134-33.997 118.784-1.434-4.301-2.867-10.035-4.506-17.613-13.517-63.283-92.979-201.114-161.997-245.146-27.238-17.408-64.102-79.667-88.678-121.037-20.685-35.021-37.069-62.464-52.838-77.619-22.118-20.89-49.766-27.034-73.933-27.034v-323.994c14.95-9.216 35.021-21.914 49.766-29.901zM355.328 24.883c0 0 0.205 0 0 0 0.205 0 0 0 0 0zM122.47 53.35h94.208v337.306h-94.208v-337.306zM901.939 284.774v0 0zM886.989 412.774c0 0 0 0 0 0s0 0 0 0zM262.144-24.678c-23.552 0-42.598 19.046-42.598 42.598v399.36c0 23.552 19.046 42.598 42.598 42.598s42.598-19.046 42.598-42.598v-399.36c0-23.552-19.046-42.598-42.598-42.598z" />
<glyph unicode="&#xe928;" glyph-name="LinkedIn" d="M221.184-57.856h-219.546v722.739h219.546v-722.739zM1026.048-57.856h-219.546v386.048c0 100.557-36.25 150.733-108.339 150.733-56.934 0-93.184-28.058-111.206-84.173v-452.608h-219.546c0 0 2.867 650.445 0 722.739h173.261l13.312-144.589h4.506c45.056 72.294 116.941 121.242 215.654 121.242 74.957 0 135.578-20.48 182.067-72.294 46.694-51.814 69.837-121.242 69.837-218.931v-408.166zM111.411 953.856c62.669 0 113.459-48.538 113.459-108.339s-50.79-108.339-113.459-108.339-113.459 48.538-113.459 108.339 50.79 108.339 113.459 108.339z" />
<glyph unicode="&#xe929;" glyph-name="LogoBondevisite" d="M410.214 884.224v-870.605h-334.643v870.605h334.643zM485.786 960h-485.786v-1021.952h485.581l0.205 1021.952zM1026.048 489.574h-467.149v468.173h467.149v-468.173zM1026.048-59.699h-467.149v468.173h467.149v-468.173z" />
<glyph unicode="&#xe92a;" glyph-name="Luminosity" d="M512 214.528c-128.614 0-233.472 104.653-233.472 233.472s104.653 233.472 233.472 233.472 233.472-104.653 233.472-233.472-104.858-233.472-233.472-233.472zM512 596.070c-81.715 0-148.070-66.355-148.070-148.070s66.355-148.070 148.070-148.070c81.715 0 148.070 66.355 148.070 148.070s-66.355 148.070-148.070 148.070zM512 726.733c-23.552 0-42.598 19.046-42.598 42.598v147.866c0 23.552 19.046 42.598 42.598 42.598s42.598-19.046 42.598-42.598v-147.866c0-23.552-19.046-42.598-42.598-42.598zM739.123 632.525c-10.854 0-21.914 4.096-30.106 12.493-16.589 16.589-16.589 43.622 0 60.416l104.653 104.653c16.589 16.589 43.622 16.589 60.416 0 16.589-16.589 16.589-43.622 0-60.416l-104.653-104.653c-8.397-8.397-19.251-12.493-30.31-12.493zM981.606 405.197h-148.48c-23.552 0-42.598 19.046-42.598 42.598s19.046 42.598 42.598 42.598h148.48c23.552 0 42.598-19.046 42.598-42.598s-19.046-42.598-42.598-42.598zM843.981 73.216c-10.854 0-21.914 4.096-30.106 12.493l-104.858 104.858c-16.589 16.589-16.589 43.622 0 60.416 16.589 16.589 43.622 16.589 60.416 0l104.858-104.858c16.589-16.589 16.589-43.622 0-60.416-8.602-8.192-19.456-12.493-30.31-12.493zM285.082 632.73c-10.854 0-21.914 4.096-30.106 12.493l-104.653 104.653c-16.589 16.589-16.589 43.622 0 60.416 16.589 16.589 43.622 16.589 60.416 0l104.653-104.653c16.589-16.589 16.589-43.622 0-60.416-8.602-8.397-19.456-12.493-30.31-12.493zM191.078 405.402h-148.48c-23.552 0-42.598 19.046-42.598 42.598s19.046 42.598 42.598 42.598h148.275c23.552 0 42.598-19.046 42.598-42.598 0.205-23.552-18.842-42.598-42.394-42.598zM180.224 73.216c-10.854 0-21.914 4.096-30.106 12.493-16.589 16.589-16.589 43.622 0 60.416l104.858 104.858c16.589 16.589 43.622 16.589 60.416 0 16.589-16.589 16.589-43.622 0-60.416l-104.858-104.858c-8.397-8.192-19.251-12.493-30.31-12.493zM512.205-64.205c-23.552 0-42.598 19.046-42.598 42.598v148.48c0 23.552 19.046 42.598 42.598 42.598 0 0 0 0 0 0 23.552 0 42.598-19.046 42.598-42.598v-148.48c0.205-23.552-18.842-42.598-42.598-42.598 0.205 0 0.205 0 0 0z" />
<glyph unicode="&#xe92b;" glyph-name="Mail" d="M978.739 146.944h-935.526c-23.552 0-42.598 19.046-42.598 42.598l-0.614 516.71c0 11.264 4.506 22.118 12.493 30.106s18.842 12.493 30.106 12.493h936.755c11.264 0 22.118-4.506 30.106-12.493s12.493-18.842 12.493-30.106l-0.614-516.71c0-23.552-19.046-42.598-42.598-42.598zM85.811 232.346h850.125l0.614 431.514h-851.149l0.41-431.514zM508.928 320c-9.216 0-18.432 3.072-26.214 9.011l-440.73 343.654c-14.336 11.264-20.070 30.31-14.131 47.514s22.118 28.877 40.346 28.877h883.507c18.227 0 34.406-11.674 40.346-28.877s0.205-36.454-14.131-47.514l-442.982-343.654c-7.578-5.939-16.794-9.011-26.010-9.011zM192.307 663.654l316.621-246.989 318.054 246.989h-634.675z" />
<glyph unicode="&#xe92c;" glyph-name="Maison" d="M61.44-0.512h901.12zM962.56-43.11h-901.12c-23.552 0-42.598 19.046-42.598 42.598s19.046 42.598 42.598 42.598h901.12c23.552 0 42.598-19.046 42.598-42.598s-19.046-42.598-42.598-42.598zM861.798-43.725c-23.552 0-42.598 19.046-42.598 42.598v460.186l-296.96 246.374-319.898-228.147v-469.606c0-23.552-19.046-42.598-42.598-42.598s-42.598 19.046-42.598 42.598v491.52c0 13.722 6.758 26.624 17.818 34.816l364.544 260.096c15.77 11.264 37.069 10.445 52.019-1.843l337.51-280.371c9.83-8.192 15.36-20.070 15.36-32.768v-480.256c0.205-23.552-19.046-42.598-42.598-42.598zM700.826 304.026h-89.702c-17.408 0-31.539 14.131-31.539 31.539v89.702c0 17.408 14.131 31.539 31.539 31.539h89.702c17.408 0 31.539-14.131 31.539-31.539v-89.702c0-17.203-14.131-31.539-31.539-31.539zM622.182 346.829h67.584v67.379h-67.584v-67.379zM700.826 414.208v0 0zM407.962 304.026h-89.702c-17.408 0-31.539 14.131-31.539 31.539v89.702c0 17.408 14.131 31.539 31.539 31.539h89.702c17.408 0 31.539-14.131 31.539-31.539v-89.702c0-17.203-14.131-31.539-31.539-31.539zM329.318 346.829h67.584v67.379h-67.584v-67.379zM407.962 414.208v0 0zM555.008-27.955h-90.112c-17.408 0-31.539 14.131-31.539 31.539v202.752c0 17.408 14.131 31.539 31.539 31.539h90.112c17.408 0 31.539-14.131 31.539-31.539v-202.752c0-17.408-14.131-31.539-31.539-31.539zM475.955 14.643h67.994v180.634h-67.994v-180.634zM555.008 195.277v0 0zM747.52 528.077c-23.142 0-42.189 18.637-42.598 41.984l-2.048 114.688c-0.41 23.552 18.432 43.008 41.984 43.418 0.205 0 0.41 0 0.819 0 23.142 0 42.189-18.637 42.598-41.984l2.048-114.688c0.41-23.552-18.432-43.008-41.984-43.418-0.41 0-0.614 0-0.819 0z" />
<glyph unicode="&#xe92d;" glyph-name="MyAds" d="M978.944-65.434h-551.936c-23.552 0-42.598 19.046-42.598 42.598v474.112c0 11.878 4.915 23.347 13.722 31.539l264.806 242.893c15.974 14.746 40.346 14.95 56.73 0.819l287.334-248.422c9.421-8.192 14.746-19.866 14.746-32.358v-468.582c-0.205-23.552-19.251-42.598-42.803-42.598zM469.606 19.763h466.739v406.528l-243.712 210.739-222.822-204.595v-412.672zM294.093 42.086h-53.658c-23.552 0-42.598 19.046-42.598 42.598v474.112c0 11.878 4.915 23.347 13.722 31.539l264.602 242.893c15.565 14.336 39.322 14.95 55.91 1.638 0.819-0.614 19.046-15.565 58.163-49.562l229.99-199.68c17.818-15.36 19.661-42.394 4.301-60.211s-42.394-19.661-60.211-4.301l-229.99 199.68c-11.059 9.626-20.48 17.613-28.058 24.166l-223.232-204.8v-412.672h11.059c23.552 0 42.598-19.046 42.598-42.598s-19.046-42.803-42.598-42.803zM104.858 157.184h-53.658c-23.552 0-42.598 19.046-42.598 42.598v474.317c0 11.878 5.12 23.347 13.926 31.539l264.602 242.688c15.565 14.336 39.322 14.95 55.91 1.638 0.819-0.614 18.842-15.565 58.163-49.152l230.195-200.090c17.818-15.36 19.661-42.394 4.301-60.211s-42.394-19.661-60.211-4.301l-230.195 199.885c-11.059 9.421-20.275 17.408-28.058 23.962l-223.232-204.8v-412.877h11.059c23.552 0 42.598-19.046 42.598-42.598s-19.251-42.598-42.803-42.598z" />
<glyph unicode="&#xe92e;" glyph-name="MyAgencies" d="M867.942 398.234c-57.754 0-95.027 19.046-118.784 40.55-21.709-21.709-56.525-40.55-111.002-40.55-62.464 0-101.99 24.781-125.747 49.562-26.214-27.238-65.126-49.562-118.579-49.562-44.442 0-82.739 15.974-110.182 45.466-23.962-24.166-58.368-43.008-105.267-43.008-59.597 0-102.605 18.432-128.205 54.682-37.888 53.658-17.818 122.061-13.312 136.192l47.514 175.104c5.12 18.637 21.914 31.539 41.165 31.539h749.773c18.227 0 34.611-11.674 40.346-28.877l56.525-166.093c9.626-18.842 44.032-95.027 10.035-151.962-14.541-24.576-46.080-53.043-114.278-53.043zM788.275 535.040c0.41-2.253 2.662-14.746 11.878-26.419 13.312-16.589 36.045-25.19 67.789-25.19 21.094 0 36.659 4.301 40.755 11.059 8.192 13.517-2.458 50.586-13.517 71.27-1.229 2.048-2.048 4.301-2.867 6.554l-47.718 140.288h-686.49l-39.322-144.794c-0.41-1.229-0.614-1.843-1.024-3.072-3.482-10.24-10.445-43.008 2.048-60.416 10.854-15.155 37.683-18.227 58.368-18.227 22.528 0 39.117 8.397 52.224 26.419 10.035 13.926 13.926 28.467 13.926 28.467 4.71 20.275 23.142 34.611 43.827 33.587 20.685-1.229 37.478-16.384 39.936-36.864 0.41-2.048 3.277-16.384 12.902-29.696 11.878-16.589 28.672-24.371 52.838-24.371 58.778 0 76.39 52.019 78.643 59.187 4.915 19.661 22.733 33.178 43.008 32.358 20.070-0.819 36.659-15.565 39.936-35.43 0.614-2.253 4.301-16.179 15.36-29.286 15.155-18.022 37.274-26.624 67.174-26.624 43.008 0 54.067 18.432 57.549 24.371 6.758 11.264 7.578 23.347 7.578 23.552 0 23.142 18.637 43.008 41.779 43.418 0.205 0 0.614 0 0.819 0 22.733-0.41 41.37-17.408 42.598-40.141zM788.275 535.45c0 0 0 0 0 0s0 0 0 0zM77.414 578.867v0 0zM896.614-63.59h-761.651c-23.552 0-42.598 19.046-42.598 42.598v442.778c0 23.552 19.046 42.598 42.598 42.598s42.598-19.046 42.598-42.598v-400.179h676.454v402.637c0 23.552 19.046 42.598 42.598 42.598s42.598-19.046 42.598-42.598v-445.235c0.205-23.552-19.046-42.598-42.598-42.598zM261.939 726.733c-23.552 0-42.598 19.046-42.598 42.598v147.661c0 23.552 19.046 42.598 42.598 42.598h486.195c23.552 0 42.598-19.046 42.598-42.598v-145.203c0-23.552-19.046-42.598-42.598-42.598s-42.598 19.046-42.598 42.598v102.605h-400.998v-105.062c0-23.552-19.046-42.598-42.598-42.598zM510.976 105.37h-261.12c-23.552 0-42.598 19.046-42.598 42.598v178.586c0 23.552 19.046 42.598 42.598 42.598h261.12c23.552 0 42.598-19.046 42.598-42.598v-178.586c0-23.552-19.046-42.598-42.598-42.598zM292.659 190.566h175.718v93.184h-175.718v-93.184zM788.89-61.133h-160.563c-23.552 0-42.598 19.046-42.598 42.598v345.088c0 23.552 19.046 42.598 42.598 42.598h160.563c23.552 0 42.598-19.046 42.598-42.598v-345.088c0-23.552-19.046-42.598-42.598-42.598zM671.13 24.064h75.162v259.891h-75.162v-259.891z" />
<glyph unicode="&#xe92f;" glyph-name="MyEstimations" d="M786.432 534.426h-305.152c-23.552 0-42.598 19.046-42.598 42.598s19.046 42.598 42.598 42.598h305.152c23.552 0 42.598-19.046 42.598-42.598s-19.046-42.598-42.598-42.598zM256 534.426h-59.392c-23.552 0-42.598 19.046-42.598 42.598s19.046 42.598 42.598 42.598h59.392c23.552 0 42.598-19.046 42.598-42.598s-19.046-42.598-42.598-42.598zM361.472 456.602c-66.97 0-121.446 54.477-121.446 121.446s54.477 121.446 121.446 121.446 121.446-54.477 121.446-121.446-54.477-121.446-121.446-121.446zM361.472 614.298c-19.866 0-36.25-16.179-36.25-36.25s16.179-36.25 36.25-36.25 36.25 16.179 36.25 36.25-16.384 36.25-36.25 36.25zM786.432 280.474h-69.632c-23.552 0-42.598 19.046-42.598 42.598s19.046 42.598 42.598 42.598h69.632c23.552 0 42.598-19.046 42.598-42.598s-19.046-42.598-42.598-42.598zM540.672 280.474h-344.064c-23.552 0-42.598 19.046-42.598 42.598s19.046 42.598 42.598 42.598h344.064c23.552 0 42.598-19.046 42.598-42.598s-19.046-42.598-42.598-42.598zM619.52 202.65c-66.97 0-121.446 54.477-121.446 121.446s54.477 121.446 121.446 121.446 121.446-54.477 121.446-121.446-54.477-121.446-121.446-121.446zM619.52 360.346c-19.866 0-36.25-16.179-36.25-36.25s16.179-36.25 36.25-36.25 36.25 16.179 36.25 36.25-16.384 36.25-36.25 36.25z" />
<glyph unicode="&#xe930;" glyph-name="MyNotations" d="M630.784 249.754c-23.552 0-42.598 19.046-42.598 42.598s19.046 42.598 42.598 42.598c74.342 0 168.346 0 223.027 0-5.939 48.128-24.576 129.024-84.173 190.464-57.139 58.982-140.698 88.678-248.832 88.678-117.965 0-206.848-35.226-264.397-105.062-51.2-61.85-64.922-134.349-67.789-174.080h56.115c53.862 0 117.555 0 170.803 0 23.552 0 42.598-19.046 42.598-42.598s-19.046-42.598-42.598-42.598c-53.248 0-116.941 0-171.008 0h-95.437c-6.349 0-38.298 2.048-44.851 43.008-1.229 7.373-1.843 16.384-1.843 26.624 0 59.597 19.251 150.118 73.318 225.28 33.587 46.694 77.21 83.558 129.434 109.568 60.621 30.106 133.12 45.261 215.45 45.261 132.301 0 236.954-38.912 310.682-115.507 115.098-119.603 110.182-286.31 109.978-293.274-0.819-22.938-19.661-41.165-42.598-41.165 0.41 0.205-155.853 0.205-267.878 0.205zM525.312 158.208c-77.824 0-141.312 63.283-141.312 141.312s63.283 141.312 141.312 141.312c77.824 0 141.312-63.283 141.312-141.312s-63.488-141.312-141.312-141.312zM525.312 355.43c-30.72 0-55.91-24.986-55.91-55.91s24.986-55.91 55.91-55.91 55.91 24.986 55.91 55.91-24.986 55.91-55.91 55.91zM538.624 400.896c67.994-10.854 90.317-151.347 96.666-110.797s-33.587 307.405-71.68 313.344-141.312-232.653-147.866-275.046 54.886 83.354 122.88 72.499z" />
<glyph unicode="&#xe931;" glyph-name="MySearchs" d="M604.16 323.686c-128.614 0-233.267 104.653-233.267 233.267s104.653 233.062 233.267 233.062c128.614 0 233.267-104.653 233.267-233.267-0.205-128.41-104.653-233.062-233.267-233.062zM604.16 704.819c-81.51 0-147.866-66.355-147.866-147.866s66.355-147.866 147.866-147.866 147.866 66.355 147.866 147.866-66.355 147.866-147.866 147.866zM225.28 130.97c-10.854 0-21.709 4.096-30.106 12.288-16.794 16.589-16.794 43.622-0.205 60.416l244.531 246.784c16.589 16.794 43.622 16.794 60.416 0.205s16.794-43.622 0.205-60.416l-244.531-246.784c-8.397-8.397-19.251-12.493-30.31-12.493z" />
<glyph unicode="&#xe932;" glyph-name="NewTab" d="M983.040 192.819h-690.176c-22.118 0-40.141 18.022-40.141 40.141v688.128c0 22.118 18.022 40.141 40.141 40.141h690.176c22.118 0 40.141-18.022 40.141-40.141v-688.128c0-22.118-18.022-40.141-40.141-40.141zM312.525 252.621h650.854v648.806h-650.854v-648.806zM983.040 901.427v0 0zM729.088-65.229h-690.176c-22.118 0-40.141 18.022-40.141 40.141v688.128c0 22.118 18.022 40.141 40.141 40.141h228.147c16.589 0 29.901-13.312 29.901-29.901s-13.312-29.901-29.901-29.901h-208.486v-648.806h650.854v209.715c0 16.589 13.312 29.901 29.901 29.901s29.901-13.312 29.901-29.901v-229.376c0-22.118-18.022-40.141-40.141-40.141zM533.709 437.35c-10.854 0-21.914 4.096-30.106 12.493-16.589 16.589-16.589 43.622 0 60.416l257.843 257.434c16.589 16.589 43.622 16.589 60.416 0 16.589-16.589 16.589-43.622 0-60.416l-258.048-257.434c-8.192-8.397-19.251-12.493-30.106-12.493zM840.294 514.15c-23.552 0-42.598 19.046-42.598 42.598v185.139h-182.886c-23.552 0-42.598 19.046-42.598 42.598s19.046 42.598 42.598 42.598h225.485c23.552 0 42.598-19.046 42.598-42.598v-227.738c0.205-23.347-19.046-42.598-42.598-42.598z" />
<glyph unicode="&#xe933;" glyph-name="Notification" d="M820.838 58.061h-611.533c-47.104 0-72.704 21.914-85.606 40.55-26.010 36.864-22.323 86.835-10.24 121.446 24.371 69.222 58.982 100.762 84.173 123.904 23.757 21.914 32.768 29.901 32.768 63.488v229.376c0 97.69 43.213 173.466 124.928 219.341 73.318 40.96 151.142 42.189 159.744 42.189s86.426-1.229 159.744-42.189c81.715-45.67 124.928-121.446 124.928-219.341v-229.581c0-33.587 8.806-41.779 32.768-63.488 25.19-23.142 59.597-54.682 84.173-123.904 12.288-34.406 15.974-84.378-10.24-121.446-12.902-18.432-38.502-40.346-85.606-40.346zM515.072 812.954c-2.458 0-62.669-0.41-118.17-31.334-54.682-30.515-81.306-77.824-81.306-144.794v-229.581c0-71.066-32.154-100.352-60.416-126.362-21.709-19.866-44.032-40.346-61.44-89.498-5.53-15.77-5.939-36.25-0.614-43.622 2.662-3.891 11.264-4.301 15.974-4.301h611.533c4.915 0 13.312 0.614 15.974 4.301 5.325 7.373 4.915 27.853-0.614 43.622-17.408 49.152-39.731 69.632-61.44 89.498-28.262 26.010-60.416 55.296-60.416 126.362v229.581c0 66.765-26.624 114.278-81.306 144.794-55.091 31.13-115.302 31.334-117.76 31.334zM455.68 871.936c-0.819 0-1.843 0-2.662 0.205-9.216 1.434-15.565 10.24-14.131 19.661 3.482 22.118 24.166 64.307 77.21 64.307 53.658 0 72.704-42.394 75.366-64.922 1.024-9.421-5.53-17.818-14.95-19.046-9.421-1.024-17.818 5.53-19.046 14.95v0c0 0-1.434 9.626-7.578 18.637-7.373 10.854-18.637 16.179-33.997 16.179-36.454 0-43.008-31.949-43.622-35.635-1.229-8.397-8.397-14.336-16.589-14.336zM516.71-61.542c-94.003 0-130.662 74.547-137.011 113.869l84.378 13.312v0.614c0-0.205 2.458-12.493 10.854-23.757 9.626-12.698 22.938-18.637 41.984-18.637 24.371 0 34.406 10.035 39.731 17.613 7.782 10.854 9.626 22.938 9.626 23.142v-0.614l84.787-10.035c-0.614-4.915-4.301-30.72-21.504-57.139-24.781-37.683-64.717-58.368-112.845-58.368z" />
<glyph unicode="&#xe934;" glyph-name="NotificationFilled" d="M514.458 100.659h-305.152c-70.042 0-68.403 69.018-55.706 105.062 43.827 123.904 119.194 101.581 119.194 201.728v229.376c0 193.536 194.355 218.726 242.074 218.726s242.278-25.19 242.278-218.726v-229.581c0-100.147 75.571-77.824 119.194-201.728 12.698-36.045 14.336-105.062-55.706-105.062h-306.176zM820.838 58.061h-611.533c-47.104 0-72.704 21.914-85.606 40.55-26.010 36.864-22.323 86.835-10.24 121.446 24.371 69.222 58.982 100.762 84.173 123.904 23.757 21.914 32.768 29.901 32.768 63.488v229.376c0 97.69 43.213 173.466 124.928 219.341 73.318 40.96 151.142 42.189 159.744 42.189s86.426-1.229 159.744-42.189c81.715-45.67 124.928-121.446 124.928-219.341v-229.581c0-33.587 8.806-41.779 32.768-63.488 25.19-23.142 59.597-54.682 84.173-123.904 12.288-34.406 15.974-84.582-10.24-121.446-12.902-18.432-38.502-40.346-85.606-40.346zM515.072 812.954c-2.458 0-62.669-0.41-118.17-31.334-54.682-30.515-81.306-77.824-81.306-144.794v-229.581c0-71.066-32.154-100.352-60.416-126.362-21.709-19.866-44.032-40.346-61.44-89.498-5.53-15.77-5.939-36.25-0.614-43.622 2.662-3.891 11.264-4.506 15.974-4.506h611.533c4.71 0 13.312 0.614 15.974 4.506 5.325 7.373 4.915 27.853-0.614 43.622-17.408 49.152-39.731 69.632-61.44 89.498-28.262 26.010-60.416 55.296-60.416 126.362v229.581c0 66.765-26.624 114.278-81.306 144.794-55.091 31.13-115.302 31.334-117.76 31.334zM455.68 889.139c0 0 7.987 49.971 60.621 49.971s58.573-49.971 58.573-49.971zM455.68 871.936c-0.819 0-1.843 0-2.662 0.205-9.216 1.434-15.565 10.24-14.131 19.456 3.482 22.323 24.166 64.512 77.21 64.512 53.658 0 72.704-42.394 75.366-64.922 1.024-9.421-5.53-17.818-14.95-19.046-9.421-1.024-17.818 5.53-19.046 14.95v0c0 0-1.434 9.626-7.578 18.637-7.373 10.854-18.637 16.179-33.997 16.179-37.683 0-43.418-33.997-43.622-35.43-1.024-8.397-8.397-14.541-16.589-14.541zM421.888 58.88c0 0 12.288-77.824 94.822-77.824s91.546 77.824 91.546 77.824zM516.71-61.542c-94.003 0-130.662 74.547-137.011 113.869l84.378 13.312v0.614c0-0.205 2.458-12.493 10.854-23.757 9.626-12.698 22.938-18.637 41.984-18.637 24.371 0 34.406 10.035 39.731 17.613 7.782 10.854 9.626 22.938 9.626 23.142v-0.614l84.787-10.035c-0.614-4.915-4.301-30.72-21.504-57.139-24.781-37.683-64.717-58.368-112.845-58.368z" />
<glyph unicode="&#xe935;" glyph-name="Password" d="M870.81-61.133h-700.006c-11.264 0-22.323 4.506-30.31 12.493s-12.493 19.046-12.493 30.31l3.277 602.317c0.205 23.552 19.251 42.394 42.598 42.394h696.73c23.552 0 42.598-19.046 42.598-42.598v-602.317c0.205-23.552-18.842-42.598-42.394-42.598zM213.606 24.269h614.4v516.915h-611.533l-2.867-516.915zM767.795 541.389h-497.254c-21.914 0-40.346 16.794-42.394 38.707-0.614 7.373-15.974 182.886 83.763 292.659 50.995 55.91 121.242 84.378 208.896 84.378s157.696-28.467 208.282-84.378c98.918-109.773 81.92-285.491 81.101-292.864-2.253-21.914-20.685-38.502-42.394-38.502zM312.525 626.79h413.696c-1.024 48.742-10.65 133.53-60.826 189.030-33.997 37.683-81.306 55.91-144.589 55.91s-111.002-18.432-145.613-56.32c-50.586-55.296-61.030-139.674-62.669-188.621zM520.806 134.042c-16.589 0-29.901 13.312-29.901 29.901v137.83c0 16.589 13.312 29.901 29.901 29.901s29.901-13.312 29.901-29.901v-137.83c0-16.384-13.517-29.901-29.901-29.901zM595.968 308.736c0-41.85-33.926-75.776-75.776-75.776s-75.776 33.926-75.776 75.776c0 41.85 33.926 75.776 75.776 75.776s75.776-33.926 75.776-75.776z" />
<glyph unicode="&#xe936;" glyph-name="PinMap" d="M520.192-42.701c-70.861 0-172.646 91.546-244.531 177.152-45.875 54.886-154.010 197.632-165.274 337.306 0 0.41 0 0.614 0 1.024-7.373 125.133 23.962 228.557 90.317 299.008 70.246 74.547 177.766 112.23 319.488 112.23 132.71 0 234.496-36.045 302.49-107.315 37.274-39.117 63.898-88.474 79.053-146.842 12.083-46.694 16.794-99.328 14.131-156.262-4.506-137.011-109.158-280.986-154.010-336.486-70.246-86.835-170.598-179.814-241.664-179.814zM195.584 478.106c6.554-79.872 61.030-188.006 145.613-288.973 36.25-43.418 75.776-82.33 111.411-109.568 38.093-29.286 60.826-37.069 67.584-37.069 18.842 0 91.75 44.646 175.104 148.070 82.125 101.786 132.71 208.691 135.168 285.901 0 0.205 0 0.41 0 0.614 5.12 105.882-18.432 186.778-69.632 240.435-51.2 53.862-132.096 81.101-240.64 81.101-117.35 0-203.981-28.672-257.434-85.402-62.874-66.765-71.27-164.659-67.174-235.11zM513.024 298.906c-104.243 0-189.030 84.787-189.030 189.030s84.787 189.030 189.030 189.030 189.030-84.787 189.030-189.030-84.787-189.030-189.030-189.030zM513.024 591.77c-57.139 0-103.834-46.49-103.834-103.834s46.49-103.834 103.834-103.834 103.834 46.49 103.834 103.834-46.694 103.834-103.834 103.834z" />
<glyph unicode="&#xe937;" glyph-name="Pluviometry" d="M57.344-49.254c-10.854 0-21.914 4.096-30.106 12.493-16.589 16.589-16.589 43.622 0 60.416l720.896 720.896c16.589 16.589 43.622 16.589 60.416 0 16.589-16.589 16.589-43.622 0-60.416l-720.896-720.896c-8.397-8.397-19.456-12.493-30.31-12.493zM393.216 589.722c-10.854 0-21.709 4.096-30.106 12.288-16.794 16.589-16.794 43.622-0.205 60.416l272.384 274.432c16.589 16.794 43.622 16.794 60.416 0.205s16.794-43.622 0.205-60.416l-272.384-274.432c-8.397-8.397-19.251-12.493-30.31-12.493zM57.344 243.61c-10.854 0-21.709 4.096-30.106 12.288-16.794 16.589-16.794 43.622-0.205 60.416l219.136 221.184c16.589 16.794 43.622 16.794 60.416 0.205s16.794-43.622 0.205-60.416l-219.136-221.184c-8.397-8.397-19.251-12.493-30.31-12.493zM438.272 6.042c-10.854 0-21.709 4.096-30.106 12.288-16.794 16.589-16.794 43.622-0.205 60.416l280.576 282.624c16.589 16.794 43.622 16.794 60.416 0.205s16.794-43.622 0.205-60.416l-280.576-282.624c-8.397-8.397-19.251-12.493-30.31-12.493zM817.152 389.018c-10.854 0-21.709 4.096-29.901 12.288-16.794 16.589-16.998 43.622-0.41 60.416l159.744 161.792c16.589 16.794 43.622 16.998 60.416 0.41s16.998-43.622 0.41-60.416l-159.744-161.792c-8.602-8.602-19.456-12.698-30.515-12.698z" />
<glyph unicode="&#xe938;" glyph-name="Pollution" d="M248.218 542.208c-23.552 0-42.598 19.046-42.598 42.598 0 67.584 26.214 131.277 73.933 179.2s111.411 74.342 178.995 74.342c0 0 0.205 0 0.205 0 58.573 0 114.893-20.275 159.744-56.73 40.141 23.757 90.522 26.419 137.626 5.325 64.102-28.672 101.99-92.57 94.003-158.72-2.867-23.347-23.962-40.141-47.514-37.274-23.347 2.867-40.141 23.962-37.274 47.514 4.301 35.635-21.094 60.416-44.237 70.656-10.445 4.71-46.694 17.613-73.114-12.493-8.192-9.216-19.661-14.336-31.949-14.336 0 0 0 0 0 0-12.288 0-23.757 5.12-31.949 14.336-31.744 35.84-77.619 56.525-125.542 56.525 0 0 0 0-0.205 0-44.851 0-87.040-17.613-118.579-49.357-31.744-31.744-49.152-73.933-49.152-118.784 0.41-23.757-18.842-42.803-42.394-42.803 0 0 0 0 0 0zM979.149 454.963c-0.205 0-0.41 0-0.819 0-23.552 0.41-42.394 19.866-41.984 43.418 0.205 15.36-6.554 40.141-26.624 59.802-22.938 22.528-58.368 33.792-102.81 32.358-23.552-0.819-43.213 17.818-44.032 41.37s17.818 43.213 41.37 44.032c86.221 2.867 137.421-29.286 165.274-56.73 33.382-32.768 52.838-78.438 52.019-122.061-0.205-23.552-19.251-42.189-42.394-42.189zM799.334 248.32c-22.323 0-41.165 17.408-42.598 39.936-1.434 23.552 16.384 43.827 39.936 45.261 50.586 3.277 93.594 24.576 117.965 58.368 24.166 33.587 29.286 79.462 15.155 132.506-6.144 22.733 7.373 46.080 30.106 52.224s46.080-7.373 52.224-30.106c26.624-99.328-0.614-165.888-28.262-204.39-39.322-54.682-105.677-88.883-181.862-93.798-0.819 0-1.843 0-2.662 0zM186.573 250.368c-1.229 0-2.458 0-3.891 0.205-14.95 1.229-29.696 3.891-44.237 7.578-0.41 0.205-1.024 0.205-1.434 0.41-48.742 14.541-88.883 47.309-113.050 91.955s-29.491 96.256-14.95 144.998 47.309 88.883 91.955 113.050c44.851 24.166 96.256 29.491 144.998 14.95 22.528-6.758 35.43-30.515 28.672-53.043s-30.515-35.43-53.043-28.672c-55.501 16.589-114.278-15.155-130.867-70.656-7.987-26.829-5.12-55.296 8.192-80.077 13.107-24.576 35.021-42.394 61.645-50.586 9.626-2.458 19.661-4.096 29.696-5.12 23.552-2.048 40.755-22.733 38.707-46.285-2.048-21.914-20.685-38.707-42.394-38.707zM462.848 651.776c0-23.187-18.797-41.984-41.984-41.984s-41.984 18.797-41.984 41.984c0 23.187 18.797 41.984 41.984 41.984s41.984-18.797 41.984-41.984zM561.152 528.896c0-23.187-18.797-41.984-41.984-41.984s-41.984 18.797-41.984 41.984c0 23.187 18.797 41.984 41.984 41.984s41.984-18.797 41.984-41.984zM403.456 487.936c0-23.187-18.797-41.984-41.984-41.984s-41.984 18.797-41.984 41.984c0 23.187 18.797 41.984 41.984 41.984s41.984-18.797 41.984-41.984zM300.237 154.522c-15.974 9.011-28.262 21.914-36.864 38.707s-12.902 36.454-12.902 58.982c0 22.528 4.301 42.189 12.902 58.778s20.89 29.491 36.864 38.502c15.974 9.011 34.611 13.517 55.91 13.517 26.829 0 49.971-7.373 69.427-22.118 3.072-2.458 5.12-4.915 6.349-7.373s1.843-5.53 1.843-9.216c0-5.325-1.434-9.83-4.506-13.722s-6.554-5.734-10.854-5.734c-2.867 0-5.325 0.41-7.578 1.024-2.048 0.614-4.506 2.048-7.168 3.891-8.192 5.325-15.77 9.216-22.733 11.469s-14.336 3.482-22.528 3.482c-19.661 0-34.406-6.144-44.442-18.227-10.035-12.288-14.95-30.31-14.95-54.477 0-48.742 19.661-73.114 59.187-73.114 7.578 0 14.746 1.229 21.504 3.482s14.541 6.144 23.757 11.469c3.072 1.843 5.53 3.072 7.782 3.891 2.048 0.614 4.301 1.024 6.963 1.024 4.301 0 7.987-1.843 10.854-5.734s4.506-8.397 4.506-13.722c0-3.686-0.614-6.758-2.048-9.421s-3.482-4.915-6.349-7.168c-19.456-14.746-42.598-22.118-69.427-22.118-20.89 0.41-39.526 4.915-55.501 13.926zM503.808 154.726c-15.974 9.011-28.058 21.914-36.659 38.707-8.602 16.589-12.902 36.25-12.902 58.778s4.301 42.189 12.902 58.778c8.602 16.589 20.89 29.491 36.659 38.502s34.611 13.517 56.115 13.517 40.141-4.506 56.115-13.517c15.77-9.011 28.058-21.914 36.659-38.502 8.602-16.794 12.902-36.25 12.902-58.778s-4.301-42.189-12.902-58.778c-8.602-16.794-20.89-29.696-36.659-38.707-15.974-9.216-34.611-13.722-56.115-13.722s-40.346 4.506-56.115 13.722zM602.317 197.12c10.24 12.698 15.565 31.13 15.565 55.091s-5.12 42.189-15.36 54.886c-10.24 12.698-24.576 18.842-42.803 18.842s-32.358-6.349-42.598-18.842c-10.24-12.493-15.155-30.925-15.155-54.886s5.12-42.394 15.36-55.091c10.24-12.698 24.371-19.046 42.394-19.046s32.358 6.349 42.598 19.046zM854.426 163.123c0-12.902-7.578-19.456-22.733-19.456h-114.278c-6.349 0-11.469 1.843-15.155 5.734-3.891 3.686-5.734 8.602-5.734 14.336 0 7.373 2.867 14.131 8.806 20.275l67.584 71.475c15.155 15.974 22.733 30.72 22.733 44.237 0 8.397-2.458 14.746-7.168 19.251-4.71 4.301-11.674 6.554-20.48 6.554-7.782 0-14.95-1.434-21.504-4.096s-14.131-6.554-22.733-11.674c-3.482-2.048-6.144-3.482-7.987-4.301s-4.096-1.229-6.554-1.229c-4.301 0-7.987 2.048-11.059 5.939s-4.71 8.602-4.71 13.926c0 3.891 0.614 7.168 2.048 9.626 1.229 2.458 3.482 4.915 6.554 6.963 9.216 6.758 19.866 12.083 31.744 16.179s23.962 5.939 36.045 5.939c14.541 0 27.238-2.458 38.298-7.373 10.854-4.915 19.456-11.878 25.395-21.094s9.011-19.661 9.011-31.539c0-12.493-2.662-24.166-7.782-34.611-5.12-10.65-13.926-22.528-26.214-35.635l-48.128-50.79h71.27c15.155 0.41 22.733-5.939 22.733-18.637zM237.568 428.544c0-23.187-18.797-41.984-41.984-41.984s-41.984 18.797-41.984 41.984c0 23.187 18.797 41.984 41.984 41.984s41.984-18.797 41.984-41.984zM710.656 455.168c0-23.187-18.797-41.984-41.984-41.984s-41.984 18.797-41.984 41.984c0 23.187 18.797 41.984 41.984 41.984s41.984-18.797 41.984-41.984zM880.64 487.936c0-23.187-18.797-41.984-41.984-41.984s-41.984 18.797-41.984 41.984c0 23.187 18.797 41.984 41.984 41.984s41.984-18.797 41.984-41.984zM712.704 612.864c0-23.187-18.797-41.984-41.984-41.984s-41.984 18.797-41.984 41.984c0 23.187 18.797 41.984 41.984 41.984s41.984-18.797 41.984-41.984z" />
<glyph unicode="&#xe939;" glyph-name="Proximity" d="M618.291 50.688c-12.902 0-24.986 8.602-28.672 21.709-4.506 15.77 4.71 32.358 20.48 36.864 52.429 15.155 100.966 43.213 140.083 81.306 107.315 104.038 132.096 268.288 60.211 399.565-7.987 14.541-2.662 32.563 11.878 40.55s32.563 2.662 40.55-11.878c40.55-74.138 56.115-160.973 44.237-244.941-12.493-86.63-52.224-164.864-115.302-225.894-46.080-45.056-103.219-78.234-165.274-96.051-2.662-0.819-5.53-1.229-8.192-1.229zM414.515 51.302c-2.867 0-5.734 0.41-8.397 1.229-64.717 19.046-123.699 54.886-170.598 103.219-11.469 11.878-11.264 30.72 0.614 42.189s30.72 11.264 42.189-0.614c39.731-41.165 89.702-71.27 144.589-87.654 15.77-4.71 24.781-21.299 20.070-37.069-3.686-12.902-15.565-21.299-28.467-21.299zM194.765 232.55c-10.854 0-21.299 5.939-26.624 16.179-39.117 75.571-52.634 159.949-38.912 244.122s53.043 159.949 114.074 219.341c11.878 11.469 30.72 11.264 42.189-0.614s11.264-30.72-0.614-42.189c-106.291-103.424-131.891-261.325-63.693-393.011 7.578-14.746 1.843-32.768-12.698-40.346-4.301-2.458-9.011-3.482-13.722-3.482zM778.24 653.414c-7.782 0-15.565 3.072-21.299 9.011-15.155 15.565-32.154 29.901-50.176 42.394-13.517 9.421-16.998 28.058-7.578 41.574s28.058 16.998 41.574 7.578c21.094-14.541 40.96-31.334 58.982-49.766 11.469-11.878 11.264-30.72-0.614-42.189-5.939-5.734-13.312-8.602-20.89-8.602zM559.514 507.802c42.803-24.576 57.344-79.667 32.154-122.88s-80.282-58.368-123.085-33.587c-42.803 24.576-57.344 79.667-32.154 122.88s80.282 58.368 123.085 33.587zM512.819 309.555c-20.275 0-40.55 5.12-59.187 15.974-27.443 15.77-47.104 41.37-55.296 72.090-8.397 31.13-3.891 63.693 12.288 91.75 33.382 57.344 106.906 77.414 163.84 44.442 27.443-15.77 47.104-41.37 55.501-72.090 8.397-31.13 3.891-63.693-12.288-91.75-22.528-38.707-63.283-60.416-104.858-60.416zM515.072 489.779c-20.89 0-41.574-11.059-52.838-30.72-8.192-14.131-10.445-30.515-6.144-46.285 4.096-15.36 13.926-28.058 27.443-35.84 28.672-16.589 65.536-6.349 82.534 22.733 8.192 14.131 10.445 30.515 6.144 46.285-4.096 15.36-13.926 28.058-27.443 35.84 0 0 0 0 0 0-9.421 5.53-19.661 7.987-29.696 7.987zM419.021 200.397c-4.096 0-8.192 0.819-12.288 2.662-98.304 44.237-156.262 145.818-143.974 253.133 1.843 16.384 16.589 28.262 32.973 26.214 16.384-1.843 28.262-16.589 26.214-32.973-9.216-81.306 34.611-158.31 109.158-191.693 14.95-6.758 21.709-24.371 14.95-39.526-4.71-11.264-15.565-17.818-27.034-17.818zM653.312 237.261c-8.192 0-16.179 3.277-22.118 9.83-11.059 12.288-10.035 31.13 2.048 42.189 19.046 17.203 33.997 37.683 44.646 60.826 6.963 14.95 24.576 21.504 39.526 14.541s21.504-24.576 14.541-39.526c-14.131-30.515-33.792-57.549-58.778-80.077-5.53-5.12-12.698-7.782-19.866-7.782zM721.92 433.050c-14.336 0-27.034 10.445-29.491 24.986-1.434 9.011-3.686 18.022-6.349 26.624-27.853 87.45-117.35 142.336-208.077 127.59-14.336-2.253-28.262-6.144-41.574-11.674-15.36-6.349-32.768 1.024-38.912 16.384s1.024 32.768 16.384 38.912c17.613 7.168 35.84 12.288 54.682 15.36 58.368 9.421 118.17-2.253 168.55-33.178s88.064-79.053 106.086-135.373c3.686-11.469 6.554-23.347 8.397-35.226 2.662-16.179-8.397-31.539-24.576-34.202-2.048 0-3.482-0.205-5.12-0.205z" />
<glyph unicode="&#xe93a;" glyph-name="Publish" d="M444.416 651.571h-206.848c-16.589 0-29.901 13.312-29.901 29.901s13.312 29.901 29.901 29.901h206.848c16.589 0 29.901-13.312 29.901-29.901s-13.312-29.901-29.901-29.901zM385.024 452.915h-348.16c-16.589 0-29.901 13.312-29.901 29.901s13.312 29.901 29.901 29.901h348.16c16.589 0 29.901-13.312 29.901-29.901s-13.517-29.901-29.901-29.901zM385.024 254.259h-266.24c-16.589 0-29.901 13.312-29.901 29.901s13.312 29.901 29.901 29.901h266.24c16.589 0 29.901-13.312 29.901-29.901s-13.312-29.901-29.901-29.901zM983.040 153.498h-442.368c-23.552 0-42.598 19.046-42.598 42.598v379.29c0 11.878 5.12 23.347 13.926 31.539l212.173 194.15c15.974 14.541 40.346 14.95 56.73 0.819l230.195-198.656c9.421-8.192 14.746-19.866 14.746-32.358v-374.784c-0.205-23.552-19.251-42.598-42.803-42.598zM583.27 238.694h356.966v312.73l-186.573 160.973-170.394-155.853v-317.85z" />
<glyph unicode="&#xe93b;" glyph-name="ReceivedMessages" d="M986.931-59.904h-935.526c-23.552 0-42.598 19.046-42.598 42.598l-0.614 516.71c0 11.264 4.506 22.118 12.493 30.106s18.842 12.493 30.106 12.493h936.755c11.264 0 22.118-4.506 30.106-12.493s12.493-18.842 12.493-30.106l-0.614-516.915c0-23.347-19.046-42.394-42.598-42.394zM94.003 25.293h850.125l0.614 431.514h-851.149l0.41-431.514zM517.12 113.152c-9.216 0-18.432 3.072-26.214 9.011l-440.73 343.654c-14.336 11.264-20.070 30.31-14.131 47.514s22.118 28.877 40.346 28.877h883.507c18.227 0 34.406-11.674 40.346-28.877s0.205-36.454-14.131-47.514l-442.982-343.654c-7.578-5.939-16.794-9.011-26.010-9.011zM200.499 456.806l316.621-246.989 318.054 246.989h-634.675zM517.939 662.835c-23.347 0-42.394 18.842-42.598 42.189l-1.843 205.21c-0.205 23.552 18.637 42.803 42.189 43.008 0.205 0 0.205 0 0.41 0 23.347 0 42.394-18.842 42.598-42.189l1.843-205.21c0.205-23.552-18.637-42.803-42.189-43.008 0 0-0.205 0-0.41 0zM519.373 589.722v0c-11.264 0-22.118 4.506-30.31 12.493l-158.925 159.539c-16.589 16.589-16.589 43.622 0 60.416 16.589 16.589 43.622 16.589 60.416 0l128.819-129.229 130.253 130.662c16.589 16.794 43.622 16.794 60.416 0 16.589-16.589 16.794-43.622 0-60.416l-160.563-160.973c-7.782-7.987-18.637-12.493-30.106-12.493z" />
<glyph unicode="&#xe93c;" glyph-name="Refresh" d="M537.805 19.968c-105.062 0-207.462 40.96-283.853 115.507-77.005 75.162-120.627 175.718-122.675 282.829-2.048 107.315 38.093 208.691 112.64 285.082 16.384 16.794 43.418 17.203 60.416 0.819 16.794-16.384 17.203-43.418 0.819-60.416-58.573-60.006-89.907-139.469-88.474-224.051 1.638-84.582 36.045-163.84 96.87-223.437 73.728-72.090 178.176-104.448 279.757-86.426 23.142 4.096 45.261-11.469 49.357-34.611s-11.469-45.261-34.611-49.357c-23.347-3.891-46.899-5.939-70.246-5.939zM347.136 514.355c-23.347 0-42.394 18.842-42.598 42.189l-1.843 142.131-133.325 5.12c-23.552 0.819-41.984 20.685-40.96 44.237 0.819 23.552 20.685 41.984 44.237 40.96l173.875-6.758c22.733-0.819 40.755-19.456 40.96-42.189l2.253-182.682c0.205-23.552-18.637-42.803-42.189-43.213 0 0.205-0.205 0.205-0.41 0.205zM775.987 171.52c-10.65 0-21.504 4.096-29.696 12.083-16.794 16.384-17.203 43.418-0.819 60.416 121.037 124.109 117.146 325.018-8.602 447.488-57.139 55.91-132.71 88.269-212.582 91.136-22.528 0.819-45.056-0.614-66.97-4.71-23.142-4.096-45.466 11.264-49.562 34.406s11.264 45.466 34.406 49.562c28.058 5.12 56.73 7.168 85.402 5.939 101.171-3.482 196.608-44.442 269.107-115.302 77.005-75.162 120.627-175.718 122.675-282.829 2.048-107.315-38.093-208.691-112.64-285.286-8.397-8.602-19.456-12.902-30.72-12.902zM879.616 98.816c-0.614 0-1.024 0-1.638 0l-173.875 6.758c-22.733 0.819-40.755 19.456-40.96 42.189l-2.253 182.682c-0.205 23.552 18.637 42.803 42.189 43.213 23.757 0.205 42.803-18.637 43.213-42.189l1.843-142.131 133.325-5.12c23.552-0.819 41.984-20.685 40.96-44.237-1.024-23.142-20.070-41.165-42.803-41.165z" />
<glyph unicode="&#xe93d;" glyph-name="Remove" d="M894.771-0.512c-16.384 0-32.768 6.349-45.261 18.842l-775.578 775.373c-24.986 24.986-24.986 65.536 0 90.522s65.536 24.986 90.522 0l775.578-775.578c24.986-24.986 24.986-65.536 0-90.522-12.493-12.288-28.877-18.637-45.261-18.637zM126.157 6.451c-16.384 0-32.768 6.349-45.261 18.842-24.986 24.986-24.986 65.536 0 90.522l774.349 774.349c24.986 24.986 65.536 24.986 90.522 0s24.986-65.536 0-90.522l-774.349-774.554c-12.493-12.493-28.877-18.637-45.261-18.637z" />
<glyph unicode="&#xe93e;" glyph-name="RemoveAd" d="M750.592-47.411c-144.998 0-262.963 117.965-262.963 262.963s117.965 262.963 262.963 262.963 262.963-117.965 262.963-262.963c0-144.998-117.965-262.963-262.963-262.963zM750.592 418.714c-112.026 0-203.162-91.136-203.162-203.162s91.136-203.162 203.162-203.162 203.162 91.136 203.162 203.162-91.136 203.162-203.162 203.162zM416.768 160.256h-371.302c-16.589 0-29.901 13.312-29.901 29.901v480.666c0 8.397 3.482 16.384 9.626 22.118l268.902 245.965c11.264 10.24 28.262 10.445 39.731 0.614l291.635-251.904c6.554-5.734 10.445-13.926 10.445-22.528v-148.89c0-16.589-13.312-29.901-29.901-29.901s-29.901 13.312-29.901 29.901v135.168l-261.325 225.485-239.616-219.136v-437.658h341.402c16.589 0 29.901-13.312 29.901-29.901s-13.312-29.901-29.696-29.901zM862.618 173.363h-223.027c-16.589 0-29.901 13.312-29.901 29.901s13.312 29.901 29.901 29.901h223.027c16.589 0 29.901-13.312 29.901-29.901s-13.312-29.901-29.901-29.901z" />
</font>
</defs>
</svg>
